<?xml version="1.0" standalone="no"?>
<!DOCTYPE svg PUBLIC "-//W3C//DTD SVG 1.1//EN" "http://www.w3.org/Graphics/SVG/1.1/DTD/svg11.dtd" >
<svg xmlns="http://www.w3.org/2000/svg">
<metadata>
This is a custom SVG webfont generated by Font Squirrel.
Designer    : Betatype
Foundry URL : Betatypecom
</metadata>
<defs>
<font id="webfontnmQLriDB" horiz-adv-x="1187" >
<font-face units-per-em="2048" ascent="1536" descent="-512" />
<missing-glyph horiz-adv-x="524" />
<glyph unicode=" "  horiz-adv-x="524" />
<glyph unicode="&#x09;" horiz-adv-x="524" />
<glyph unicode="&#xa0;" horiz-adv-x="524" />
<glyph unicode="!" horiz-adv-x="524" d="M158 78v49q0 37 32.5 66.5t88.5 29.5q53 0 84.5 -29.5t31.5 -66.5v-49q0 -37 -31.5 -66.5t-84.5 -29.5q-55 0 -88 29.5t-33 66.5zM158 473v762q0 37 32.5 66.5t88.5 29.5q53 0 84.5 -29.5t31.5 -66.5v-762q0 -37 -31.5 -66.5t-84.5 -29.5q-55 0 -88 29.5t-33 66.5z" />
<glyph unicode="&#x22;" horiz-adv-x="772" d="M158 1251q0 31 26.5 55.5t73.5 24.5q43 0 69.5 -24.5t26.5 -55.5l-18 -272q0 -25 -22.5 -45.5t-59.5 -20.5q-39 0 -61.5 20.5t-22.5 45.5zM461 1251q0 31 26.5 55.5t73.5 24.5q43 0 69.5 -24.5t26.5 -55.5l-18 -272q0 -25 -22.5 -45.5t-59.5 -20.5q-39 0 -61.5 20.5 t-22.5 45.5z" />
<glyph unicode="#" horiz-adv-x="1495" d="M117 401q0 47 24.5 75t57.5 28h151l60 334h-154q-33 0 -57.5 26.5t-24.5 71.5q0 47 24.5 74.5t57.5 27.5h190l39 215q6 35 42 59.5t83 14.5t69.5 -44t18.5 -69l-32 -176h206l39 215q6 35 42 59.5t83 14.5q45 -10 68.5 -44t19.5 -69l-32 -176h110q47 0 72.5 -27.5 t25.5 -74.5q0 -45 -25.5 -71.5t-72.5 -26.5h-147l-60 -334h150q47 0 72.5 -27.5t25.5 -75.5q0 -43 -25.5 -70.5t-72.5 -27.5h-187l-43 -246q-6 -35 -37.5 -59.5t-78.5 -15.5q-49 10 -74 44.5t-20 69.5l36 207h-209l-43 -246q-6 -35 -37.5 -59.5t-78.5 -15.5q-49 10 -74 44.5 t-20 69.5l36 207h-116q-33 0 -57.5 27.5t-24.5 70.5zM569 504h207l60 334h-207z" />
<glyph unicode="$" horiz-adv-x="1132" d="M129 940q0 164 100.5 267.5t282.5 113.5l2 92q0 39 25.5 59.5t55.5 20.5t55.5 -20.5t25.5 -59.5l-4 -102q72 -14 126 -42t90 -59.5t54.5 -63.5t18.5 -54q0 -47 -24 -77t-79 -30q-33 0 -58.5 14.5t-47.5 32.5l-35 25q-20 14 -49 24l-11 -356q63 -25 127 -54.5t114 -73.5 t81 -106.5t31 -150.5q0 -160 -98.5 -257t-272.5 -112l-2 -80q0 -41 -25.5 -60t-55.5 -19t-55.5 19t-25.5 60l2 91q-53 10 -112.5 30.5t-108.5 50t-81 69.5t-32 89q0 96 107 96q35 -2 61.5 -19t48.5 -38q43 -43 121 -67l11 362q-66 27 -130.5 57.5t-116.5 74.5t-84 105.5 t-32 147.5zM371 950q0 -57 34.5 -93t92.5 -64l8 309q-61 -8 -98 -47t-37 -105zM643 180q59 10 93 45t34 101q0 53 -32.5 91t-86.5 66z" />
<glyph unicode="%" horiz-adv-x="1619" d="M106 932v135q0 59 25 108.5t67 83t97 52t119 18.5q61 0 116.5 -18.5t97.5 -52t65.5 -83t23.5 -108.5v-135q0 -59 -23.5 -108.5t-65.5 -83t-97.5 -52t-116.5 -18.5q-63 0 -118.5 18.5t-97.5 52t-67 83t-25 108.5zM303 940q0 -47 32 -74.5t79 -27.5q43 0 74.5 27.5 t31.5 74.5v119q0 47 -31.5 74.5t-74.5 27.5q-47 0 -79 -27.5t-32 -74.5v-119zM380 55q-13 37 5 72l639 1151q16 33 57 47t90 -10q47 -23 58.5 -59.5t-6.5 -67.5l-635 -1151q-18 -35 -59.5 -50.5t-88.5 7.5q-47 24 -60 61zM903 242v135q0 59 23.5 108.5t65.5 83t97.5 52 t118.5 18.5t118.5 -18.5t96.5 -52t64.5 -83t23.5 -108.5v-135q0 -59 -23.5 -108.5t-64.5 -83.5t-96 -52t-119 -18q-63 0 -118.5 18t-97.5 52t-65.5 83.5t-23.5 108.5zM1100 250q0 -47 31.5 -75t76.5 -28q43 0 76 28t33 75v119q0 47 -33 74.5t-76 27.5q-45 0 -76.5 -27.5 t-31.5 -74.5v-119z" />
<glyph unicode="&#x26;" horiz-adv-x="1210" d="M96 348q0 119 65.5 193.5t170.5 115.5q-90 35 -143.5 106t-53.5 169q0 96 41 171t107.5 125t150.5 76.5t170 26.5q53 0 114.5 -8t118 -28.5t102.5 -56.5t71 -93q12 -31 9 -57.5t-18.5 -45t-38 -30t-47.5 -11.5q-29 0 -58.5 11.5t-49.5 40.5q-41 51 -98.5 63t-114.5 12 q-37 0 -76 -11t-70.5 -35.5t-52 -63.5t-20.5 -94q0 -76 49 -125t129 -49h575q41 0 61.5 -29t20.5 -64.5t-20.5 -64.5t-61.5 -29h-79l2 -317q0 -74 -19.5 -111t-62.5 -72q-41 -20 -80 -35.5t-82 -26.5t-92 -16t-111 -5q-88 0 -178 19t-164 62t-120 114t-46 173zM330 356 q0 -49 24.5 -82.5t64.5 -54t89 -30t98 -9.5q63 0 102.5 5t88.5 22q25 14 33 37.5t8 58.5v260h-279q-39 -6 -80 -22.5t-73.5 -42t-54 -61.5t-21.5 -81z" />
<glyph unicode="'" horiz-adv-x="456" d="M123 1239q0 45 32.5 68.5t72.5 23.5t73 -23.5t33 -68.5l-27 -313q0 -25 -22.5 -45.5t-59.5 -20.5q-39 0 -61.5 20.5t-22.5 45.5z" />
<glyph unicode="(" horiz-adv-x="880" d="M250 569.5q-2 245.5 84 481.5q14 41 37.5 85t51.5 85t58.5 76.5t59.5 62.5q33 31 67.5 30t57 -25t27.5 -61.5t-21 -76.5q-20 -31 -42 -71t-41.5 -83t-35.5 -87t-27 -83q-49 -186 -41.5 -382.5t72.5 -377.5q20 -55 53 -120.5t62 -108.5q27 -41 21.5 -78t-29 -60.5 t-59.5 -24.5t-70 30q-27 25 -55.5 60.5t-56.5 76.5t-50.5 85t-36.5 85q-84 236 -86 481.5z" />
<glyph unicode=")" horiz-adv-x="880" d="M251 -164q-5 37 21 78q29 43 62 108.5t53 120.5q66 180 73 377t-42 383q-10 39 -26.5 83t-36 87t-41 83t-42.5 71q-27 39 -21.5 76.5t28 61.5t56.5 25t68 -30q29 -27 60 -62.5t58.5 -76.5t51 -85t37.5 -85q86 -236 84 -481.5t-86 -481.5q-14 -41 -36.5 -85t-50 -85 t-57.5 -77t-56 -60q-35 -31 -70 -30t-58.5 24.5t-28.5 60.5z" />
<glyph unicode="*" horiz-adv-x="1056" d="M110.5 1016q-8.5 35 7 65.5t48.5 48t74 -1.5l194 -90l-4 211q0 43 29.5 63.5t66.5 20.5t67 -20.5t30 -63.5l-11 -215l205 94q39 18 72 1t48 -47.5t7 -65.5t-47 -53l-227 -91l168 -176q29 -33 20.5 -67.5t-36 -56t-64.5 -24.5t-66 30l-166 200l-166 -200 q-29 -33 -65.5 -30t-64 24.5t-36 56.5t20.5 67l168 178l-223 89q-41 18 -49.5 53zM526 897l2 2h-2v-2z" />
<glyph unicode="+" horiz-adv-x="1034" d="M63 580q0 45 26 70.5t58 25.5h267v252q0 31 25.5 55.5t70.5 24.5q47 0 73.5 -25t26.5 -55v-252h248q49 0 76 -25.5t27 -70.5q0 -41 -27 -67t-76 -26h-248v-235q0 -47 -26.5 -72.5t-73.5 -25.5q-45 0 -70.5 25.5t-25.5 72.5v235h-267q-33 0 -58.5 26t-25.5 67z" />
<glyph unicode="," horiz-adv-x="497" d="M-21.5 -208q11.5 38 58.5 65q68 35 86 98t18 135q0 66 36 97.5t81 31.5q47 0 83 -25.5t36 -84.5q0 -143 -57.5 -251t-192.5 -175q-53 -20 -91 -5t-53.5 45.5t-4 68.5z" />
<glyph unicode="-" horiz-adv-x="913" d="M172 600q0 51 29.5 81t66.5 30h365q57 0 87 -30t30 -81q0 -47 -30 -76.5t-87 -29.5h-365q-37 0 -66.5 29.5t-29.5 76.5z" />
<glyph unicode="." horiz-adv-x="497" d="M113 80v51q0 39 35.5 69.5t97.5 30.5q55 0 91 -30.5t36 -69.5v-51q0 -39 -36 -69.5t-91 -30.5q-61 0 -97 30.5t-36 69.5z" />
<glyph unicode="/" horiz-adv-x="800" d="M55 119l451 1153q12 35 54 51t95 -2q49 -16 67.5 -54t6.5 -73l-450 -1153q-12 -35 -52.5 -52.5t-91.5 -0.5q-51 18 -71.5 57t-8.5 74z" />
<glyph unicode="0" horiz-adv-x="1249" d="M129 492v327q0 92 24.5 183.5t83 164t152.5 118.5t234 46q139 0 234 -46t153.5 -118.5t84 -164t25.5 -183.5v-327q0 -111 -33.5 -205t-97 -162t-156 -106.5t-210.5 -38.5q-117 0 -209 38.5t-155.5 106.5t-96.5 162t-33 205zM365 469q0 -135 61 -201.5t197 -66.5 q141 0 199.5 66.5t58.5 201.5v371q0 135 -58.5 201.5t-199.5 66.5q-139 0 -198.5 -66.5t-59.5 -201.5v-371z" />
<glyph unicode="1" horiz-adv-x="770" d="M63 1200q0 51 32 81t85 30h324q51 0 82.5 -30t31.5 -67v-1138q0 -37 -31.5 -66.5t-82.5 -29.5q-57 0 -90 29.5t-33 66.5v1018h-201q-53 0 -85 29.5t-32 76.5z" />
<glyph unicode="2" horiz-adv-x="1112" d="M146.5 999.5q-9.5 30.5 0.5 63.5q6 29 33 74t79 88t132 74.5t193 31.5q111 0 187.5 -27.5t124.5 -75.5t68.5 -114.5t20.5 -144.5q0 -84 -36 -156t-92 -136.5t-125 -123.5l-131 -117q-62 -57 -112.5 -114.5t-70.5 -118.5h493q39 0 70 -25.5t31 -79.5q0 -49 -31 -73.5 t-70 -24.5h-653q-39 0 -70.5 24.5t-31.5 73.5q0 4 -1 7.5t1 7.5q2 106 48 194t111.5 161t142.5 136l142 122q66 58 109 113.5t43 116.5q0 76 -36 120t-134 44q-49 0 -82 -7t-58.5 -23.5t-48 -43t-49.5 -63.5q-20 -29 -60 -43t-87 8q-41 21 -50.5 51.5z" />
<glyph unicode="3" horiz-adv-x="1107" d="M106 203q0 41 25 68.5t59 27.5q35 0 63 -7t60 -34q41 -37 94.5 -56.5t106.5 -19.5q129 0 190.5 52.5t61.5 125.5v35q0 68 -62.5 119t-185.5 51h-84q-53 0 -85 24.5t-32 72.5q0 51 32 75.5t85 24.5h84q90 0 145.5 42t55.5 101v39q0 74 -50.5 126t-150.5 52 q-59 0 -106 -20.5t-78 -40.5q-35 -23 -52.5 -29t-52.5 -6t-58.5 22.5t-23.5 63.5q0 35 29 74t79 70.5t117.5 53t145.5 21.5q119 0 203 -28.5t136 -76.5t75.5 -111.5t23.5 -133.5v-31q0 -88 -51 -161.5t-143 -114.5q121 -35 179 -115t58 -184v-19q0 -70 -21.5 -137 t-75.5 -120.5t-148.5 -86t-239.5 -32.5q-76 0 -149.5 19t-131 52t-92.5 72t-35 80z" />
<glyph unicode="4" horiz-adv-x="1191" d="M63 387q0 14 1.5 28.5t11.5 30.5l426 842q23 33 62.5 42t88.5 -19q43 -25 55.5 -66t-8.5 -74l-354 -682h359v256q0 37 32.5 67t89.5 30q51 0 83 -30t32 -67v-256h66q119 0 118 -106q0 -47 -29.5 -74.5t-88.5 -27.5h-66v-205q0 -37 -31.5 -66.5t-83.5 -29.5 q-57 0 -89.5 29.5t-32.5 66.5v205h-545q-37 0 -67 29.5t-30 76.5z" />
<glyph unicode="5" horiz-adv-x="1036" d="M106 199q0 41 24 65.5t58 24.5q35 0 61.5 -11.5t61.5 -33.5q31 -20 69 -34.5t95 -14.5q104 0 158.5 48t54.5 130v63q0 92 -54 135t-159 43h-196q-80 -6 -118 22t-30 99l62 576h552q49 0 88 -30t39 -85q0 -35 -31.5 -65.5t-76.5 -30.5h-383l-31 -287h197 q182 0 282.5 -103.5t100.5 -281.5v-47q0 -72 -25.5 -144.5t-81 -131t-141.5 -94.5t-205 -31q-80 0 -147.5 18t-117.5 49t-78 70t-28 82z" />
<glyph unicode="6" horiz-adv-x="1146" d="M106 514v279q0 109 31 207t93.5 171.5t156.5 116.5t221 43q80 0 147.5 -18.5t118 -49t78 -69.5t27.5 -82q0 -41 -23.5 -63.5t-58.5 -22.5t-61.5 9t-61.5 32q-31 20 -69.5 34.5t-98.5 14.5q-117 0 -188.5 -74.5t-71.5 -234.5v-76q51 47 127 75t182 28q184 -2 283.5 -104.5 t99.5 -280.5v-68q0 -72 -25.5 -144.5t-80.5 -131t-140 -94.5t-204 -31q-127 0 -218 43t-149.5 115.5t-86.5 169.5t-28 206zM352 403q16 -111 75.5 -159.5t158.5 -48.5q104 0 158.5 48t54.5 130v84q0 178 -213 178q-45 0 -87 -15.5t-74 -45t-50.5 -73.5t-18.5 -100z" />
<glyph unicode="7" horiz-adv-x="1007" d="M43 1200q0 51 31.5 81t85.5 30h643q55 0 85 -30t32 -79q6 -33 -7 -57l-221 -449q-47 -98 -72.5 -191t-23.5 -220l2 -209q0 -37 -31.5 -66.5t-85.5 -29.5q-57 0 -90 29.5t-33 66.5l-2 203q-2 117 26 251t93 250l176 314h-491q-53 0 -85 29.5t-32 76.5z" />
<glyph unicode="8" horiz-adv-x="1177" d="M106 356v19q0 104 58.5 182t181.5 117q-92 41 -144 120.5t-52 168.5v18q0 70 23.5 133.5t76.5 111.5t136 76.5t204 28.5q119 0 203 -28.5t136 -76.5t75.5 -111.5t23.5 -133.5v-18q0 -88 -52 -168t-145 -121q123 -39 181.5 -117t58.5 -182v-19q0 -70 -22.5 -137 t-78 -120.5t-147.5 -86t-231 -32.5t-232.5 32.5t-149.5 86t-80 120.5t-24 137zM346 360q0 -74 64.5 -129t181.5 -55t178 55.5t61 128.5v35q0 68 -59 122t-180 54q-123 0 -184.5 -54t-61.5 -122v-35zM389 918q0 -31 14.5 -60t41 -51.5t63.5 -36.5t82 -14q43 0 80 14 t63.5 36.5t40.5 51.5t14 60v43q0 74 -49 119.5t-149 45.5t-150.5 -46t-50.5 -119v-43z" />
<glyph unicode="9" horiz-adv-x="1146" d="M106 860v39q0 72 26 149.5t81 141t141 103.5t205 38q127 0 217 -43t148.5 -116.5t86 -172t27.5 -206.5v-275q0 -109 -30.5 -207t-93 -171.5t-156.5 -116.5t-221 -43q-80 0 -147.5 18t-117 49t-77 70t-27.5 82q0 41 23.5 63.5t58.5 22.5t61.5 -9.5t61.5 -31.5 q31 -20 69.5 -34.5t98.5 -14.5q117 0 188.5 74.5t71.5 234.5v41l-15 8q-49 -47 -121.5 -78t-175.5 -31q-90 0 -161.5 33t-120.5 88.5t-75 131t-26 163.5zM348 852q0 -92 54.5 -150.5t158.5 -58.5q45 0 87 14.5t75 43t53.5 70.5t22.5 97q-25 248 -238 248q-53 0 -92 -17.5 t-66.5 -46t-41 -66.5t-13.5 -79v-55z" />
<glyph unicode=":" horiz-adv-x="497" d="M113 811v51q0 39 35.5 69.5t97.5 30.5q55 0 91 -30.5t36 -69.5v-51q0 -39 -36 -69.5t-91 -30.5q-61 0 -97 30.5t-36 69.5zM113 80v51q0 39 35.5 69.5t97.5 30.5q55 0 91 -30.5t36 -69.5v-51q0 -39 -36 -69.5t-91 -30.5q-61 0 -97 30.5t-36 69.5z" />
<glyph unicode=";" horiz-adv-x="497" d="M-21.5 -208q11.5 38 58.5 65q68 35 86 98t18 135q0 66 36 97.5t81 31.5q47 0 83 -25.5t36 -84.5q0 -143 -57.5 -251t-192.5 -175q-53 -20 -91 -5t-53.5 45.5t-4 68.5zM113 811v51q0 39 35.5 69.5t97.5 30.5q55 0 91 -30.5t36 -69.5v-51q0 -39 -36 -69.5t-91 -30.5 q-61 0 -97 30.5t-36 69.5z" />
<glyph unicode="&#x3c;" horiz-adv-x="1308" d="M106 571.5q0 53.5 72 92.5l850 380q49 10 90 -3t60.5 -39.5t12.5 -62.5t-52 -71l-670 -301l680 -340q43 -35 50 -70.5t-12.5 -62t-60.5 -40t-90 -3.5l-429 213l-429 215q-72 39 -72 92.5z" />
<glyph unicode="=" d="M172 381q0 47 27.5 74.5t62.5 27.5h668q53 0 80.5 -27.5t27.5 -74.5q0 -43 -27.5 -70.5t-80.5 -27.5h-668q-35 0 -62.5 27.5t-27.5 70.5zM172 772q0 47 27.5 74.5t62.5 27.5h668q53 0 80.5 -27.5t27.5 -74.5q0 -45 -27.5 -71.5t-80.5 -26.5h-668q-35 0 -62.5 26.5 t-27.5 71.5z" />
<glyph unicode="&#x3e;" horiz-adv-x="1308" d="M109 956q0 23 11 42.5t30.5 32.5t45 17.5t56.5 -4.5l440 -213l438 -215q70 -39 70 -92q0 -25 -17.5 -49t-52.5 -43l-868 -381q-31 -8 -56.5 -4t-46 17.5t-31.5 33t-11 41.5q0 47 53 88l672 301l-680 340q-53 41 -53 88z" />
<glyph unicode="?" horiz-adv-x="1077" d="M78 1009.5q-8 30.5 0 63.5q6 29 35.5 73t84 85t136.5 70.5t194 29.5q111 0 189 -32.5t125 -86t68.5 -121t21.5 -139.5t-25.5 -122t-64.5 -86.5t-84 -65.5t-84 -61.5t-64.5 -72.5t-25.5 -98v-34q0 -29 -30 -62t-79 -35q-55 -2 -87 28t-32 65q0 94 26 157.5t62.5 108.5 t81.5 77.5t82 63.5t62.5 64.5t25.5 83.5q0 80 -46 118.5t-124 38.5q-49 0 -83.5 -6t-63.5 -20.5t-53.5 -39t-51.5 -61.5q-20 -29 -60 -43t-87 8q-41 21 -49 51.5zM354 78q0 53 31 78.5t72 25.5h41q39 0 69.5 -25.5t30.5 -78.5q0 -49 -30.5 -73.5t-69.5 -24.5h-41 q-41 0 -72 24.5t-31 73.5z" />
<glyph unicode="@" horiz-adv-x="1792" d="M78 369q0 199 59.5 368.5t175 293.5t283.5 193.5t385 69.5q201 0 339 -56t224 -149.5t124 -216t38 -256.5q0 -127 -29.5 -240.5t-92 -199.5t-158 -136t-226.5 -50q-25 0 -52.5 3t-52 15t-44 38t-27.5 69l-12 4q-12 -20 -33 -42t-50.5 -40.5t-67.5 -30.5t-83 -12 q-63 0 -119.5 21.5t-99.5 67.5t-67.5 117.5t-24.5 170.5q0 137 41 240.5t107.5 173t152.5 105.5t178 36q78 0 141.5 -23.5t106.5 -65.5t63.5 -99.5t14.5 -127.5l-49 -467q90 0 150.5 39t97 103.5t53 149.5t16.5 181q0 88 -21.5 181.5t-83 168t-172 123t-286.5 48.5 q-172 0 -306 -54.5t-228.5 -153t-143.5 -237.5t-49 -309q0 -156 48 -267.5t133 -184t198.5 -106.5t247.5 -34l90 2q41 0 63.5 -24.5t21.5 -55t-27 -55.5t-81 -25h-63q-154 0 -298.5 41t-257 129t-180 227.5t-67.5 338.5zM713 412q-10 -104 21.5 -166t113.5 -62 q29 0 55.5 12.5t50 31t42 38t30.5 33.5l31 285q8 63 -24 106t-103 43q-98 0 -150.5 -82.5t-66.5 -238.5z" />
<glyph unicode="A" horiz-adv-x="1212" d="M76 111l401 1134q10 35 46 60.5t87 25.5q49 0 86 -25.5t47 -60.5l394 -1132q3 -11 3 -22q0 -25 -16 -51q-23 -38 -77 -52q-19 -5 -37 -5q-29 0 -55 13q-40 20 -50 55l-74 238h-446l-76 -240q-12 -35 -52 -55q-25 -13 -53 -13q-17 0 -36 5q-55 14 -79 52q-16 26 -16 51 q0 11 3 22zM449 489h319l-158 508z" />
<glyph unicode="B" horiz-adv-x="1189" d="M143 106v1108q0 37 34 67t89 30h307q127 0 216.5 -31t145.5 -82t81.5 -115.5t25.5 -134.5v-14q0 -90 -42 -157.5t-140 -108.5q131 -39 179 -117t48 -180v-15q0 -70 -21.5 -134t-74.5 -113.5t-144 -79t-231 -29.5h-350q-55 0 -89 34.5t-34 71.5zM383 197h233 q117 0 174.5 45t57.5 118v31q0 74 -54.5 123t-177.5 49h-233v-366zM383 752h233q94 8 141.5 50t47.5 107v39q0 74 -57.5 116t-174.5 42h-190v-354z" />
<glyph unicode="C" horiz-adv-x="1021" d="M129 477v357q0 100 30.5 191t92 158.5t152 107.5t206.5 40q80 0 147.5 -18.5t118 -49t78 -69.5t27.5 -82q0 -41 -24.5 -63.5t-57.5 -22.5q-35 0 -61.5 9t-61.5 32q-33 20 -70.5 34.5t-97.5 14.5q-98 0 -168.5 -65.5t-70.5 -202.5v-387q0 -137 70.5 -201.5t168.5 -64.5 q59 0 95 9t69 27l39 23.5t29.5 14.5t28 7.5t32.5 2.5q41 0 60.5 -24t19.5 -58q0 -43 -27.5 -82t-78 -69t-118 -48t-147.5 -18q-117 0 -207 39.5t-151.5 107.5t-92 158t-30.5 192z" />
<glyph unicode="D" horiz-adv-x="1214" d="M154 96v1118q0 37 32.5 67t89.5 30h265q139 0 241.5 -44t169 -119t98 -176.5t31.5 -215.5v-228q0 -111 -31.5 -207t-98 -167.5t-169 -112.5t-241.5 -41h-265q-57 0 -89.5 29.5t-32.5 66.5zM393 217h148q141 0 221 74t80 215v270q0 150 -80 234t-221 84h-148v-877z" />
<glyph unicode="E" horiz-adv-x="1064" d="M154 96v1118q0 37 33.5 67t88.5 30h576q57 0 87 -30t30 -81q0 -47 -30 -76.5t-87 -29.5h-459v-322h307q59 0 89 -29.5t30 -80.5q0 -47 -29.5 -77t-89.5 -30h-307v-338h459q57 0 87 -29.5t30 -81.5q0 -47 -30 -76.5t-87 -29.5h-576q-55 0 -88.5 29.5t-33.5 66.5z" />
<glyph unicode="F" horiz-adv-x="1009" d="M154 76v1138q0 37 33.5 67t88.5 30h555q57 0 87 -30t30 -81q0 -47 -29.5 -76.5t-87.5 -29.5h-438v-342h309q57 0 87 -30t30 -81q0 -47 -29.5 -76.5t-87.5 -29.5h-309v-459q0 -37 -31.5 -66.5t-85.5 -29.5q-55 0 -88.5 29.5t-33.5 66.5z" />
<glyph unicode="G" horiz-adv-x="1210" d="M129 475v359q0 100 33 191t98.5 158.5t161.5 107.5t223 40q117 0 209 -33.5t139 -83.5q36 -40 36 -77q0 -40 -28 -67q-27 -26 -71 -30h-11q-40 0 -81 27q-35 23 -91.5 36t-103.5 13q-117 0 -195.5 -64.5t-78.5 -203.5v-389q0 -68 21.5 -118t60 -83t89 -48t109.5 -15t95 9 t69 27l37 27v217h-131q-49 0 -79 30t-30 77t30 76.5t79 29.5h252q57 0 86.5 -24.5t29.5 -79.5v-400q-25 -41 -59.5 -77.5t-85.5 -65.5t-121.5 -45t-169.5 -16q-127 0 -224 38.5t-163.5 106.5t-100.5 158t-34 192z" />
<glyph unicode="H" horiz-adv-x="1292" d="M154 76v1159q0 37 33.5 66.5t88.5 29.5q53 0 85 -29.5t32 -66.5v-483h508v483q0 37 33 66.5t90 29.5q51 0 84 -29.5t33 -66.5v-1159q0 -37 -33 -66.5t-84 -29.5q-57 0 -90 29.5t-33 66.5v459h-508v-459q0 -37 -31.5 -66.5t-85.5 -29.5q-55 0 -88.5 29.5t-33.5 66.5z" />
<glyph unicode="I" horiz-adv-x="546" d="M154 78v1157q0 37 32.5 66.5t89.5 29.5q51 0 84 -29.5t33 -66.5v-1157q0 -37 -32.5 -66.5t-84.5 -29.5q-57 0 -89.5 29.5t-32.5 66.5z" />
<glyph unicode="J" horiz-adv-x="788" d="M41 113q0 45 23.5 71.5t70.5 26.5q35 0 62.5 -8t70.5 -8q72 0 100.5 33.5t28.5 113.5v893q0 37 33 66.5t84 29.5q57 0 90 -29.5t33 -66.5v-885q0 -203 -94 -285.5t-275 -82.5q-45 0 -86 8t-72.5 23.5t-50 40t-18.5 59.5z" />
<glyph unicode="K" horiz-adv-x="1120" d="M154 76v1159q0 37 32.5 66.5t89.5 29.5q51 0 84 -29.5t33 -66.5v-494h64l393 555q12 14 31.5 23.5t43 10.5t47 -5t44.5 -22q36 -32 36 -76q0 -52 -30 -82l-367 -490l416 -497q22 -22 22 -55q0 -8 -1 -16q-6 -44 -48 -79q-35 -28 -75 -28q-4 0 -8 1q-45 3 -70 31l-422 520 h-76v-456q0 -37 -32.5 -66.5t-84.5 -29.5q-57 0 -89.5 29.5t-32.5 66.5z" />
<glyph unicode="L" horiz-adv-x="968" d="M154 96v1139q0 37 32.5 66.5t89.5 29.5q51 0 84 -29.5t33 -66.5v-1018h436q57 0 87 -29.5t30 -81.5q0 -47 -29.5 -76.5t-87.5 -29.5h-565q-53 4 -81.5 32.5t-28.5 63.5z" />
<glyph unicode="M" horiz-adv-x="1507" d="M154 76v1159q0 37 33.5 66.5t88.5 29.5h35q53 0 88 -19.5t54 -51.5l301 -607l301 607q20 33 55 54q32 20 79 19h9l33 -2q57 0 90 -29.5t33 -66.5v-1159q0 -37 -33 -66.5t-90 -29.5q-51 0 -83 29.5t-32 66.5v858l-229 -477q-16 -31 -49 -58.5t-84 -27.5q-49 0 -82 27.5 t-51 58.5l-228 477v-858q0 -37 -31.5 -66.5t-85.5 -29.5q-55 0 -88.5 29.5t-33.5 66.5z" />
<glyph unicode="N" horiz-adv-x="1333" d="M154 76v1159q0 37 33.5 66.5t88.5 29.5q45 0 76 -23.5t39 -54.5l551 -804v786q0 37 33 66.5t90 29.5q51 0 83 -29.5t32 -66.5v-1159q0 -37 -32 -66.5t-83 -29.5q-45 0 -74.5 17t-42.5 46l-6 10l-549 797v-774q0 -37 -31.5 -66.5t-85.5 -29.5q-55 0 -88.5 29.5t-33.5 66.5 z" />
<glyph unicode="O" horiz-adv-x="1302" d="M133 512v287q0 113 31 210t94.5 168.5t160.5 112.5t230 41q135 0 232.5 -41t162 -112.5t95 -169t30.5 -209.5v-287q0 -113 -30.5 -210t-95 -169t-162 -112.5t-232.5 -40.5q-133 0 -230 40.5t-160.5 112.5t-94.5 169t-31 210zM369 510q0 -168 75.5 -238.5t204.5 -70.5 q133 0 207 70.5t74 238.5v289q0 168 -74 238.5t-207 70.5q-129 0 -204.5 -70.5t-75.5 -238.5v-289z" />
<glyph unicode="P" horiz-adv-x="1140" d="M150 86v1128q0 37 33.5 67t88.5 30h269q129 0 223 -33t155.5 -91.5t90 -136t28.5 -167.5v-23q0 -78 -26.5 -149.5t-86 -127t-153.5 -89t-231 -33.5h-152v-385q0 -37 -31.5 -66.5t-85.5 -29.5q-55 0 -88.5 34.5t-33.5 71.5zM389 657h152q68 0 117 16.5t80.5 43t47 61.5 t15.5 72v47q0 88 -61.5 148.5t-198.5 60.5h-152v-449z" />
<glyph unicode="Q" horiz-adv-x="1302" d="M133 512v287q0 113 31 210t94.5 168.5t160.5 112.5t230 41q135 0 232.5 -41t162 -112.5t95 -169t30.5 -209.5v-287q0 -96 -22.5 -180t-67.5 -151.5t-114.5 -116t-163.5 -68.5q0 -80 29.5 -120t119.5 -40q31 0 61.5 7t57.5 9.5t48.5 -8t33.5 -47.5q7 -20 7 -38 q0 -15 -5 -29q-10 -31 -39 -53.5t-71 -35t-93 -12.5q-190 0 -287.5 90.5t-101.5 266.5q-111 12 -191.5 58t-133 115.5t-78 160t-25.5 192.5zM369 510q0 -168 75.5 -238.5t204.5 -70.5q133 0 207 70.5t74 238.5v289q0 168 -74 238.5t-207 70.5q-129 0 -204.5 -70.5 t-75.5 -238.5v-289z" />
<glyph unicode="R" horiz-adv-x="1155" d="M150 82v1132q0 37 33.5 67t88.5 30h289q137 0 233.5 -29t155 -81t85 -124.5t26.5 -163.5v-14q0 -104 -48 -179t-169 -120l227 -465q13 -17 13 -37q0 -15 -7 -33q-16 -42 -63 -71q-30 -15 -59 -15q-15 0 -29 4q-43 11 -62 42l-229 491q-16 -2 -35 -2h-39h-172v-442 q0 -37 -31.5 -64.5t-85.5 -27.5q-55 0 -88.5 32.5t-33.5 69.5zM389 711h172q139 0 199.5 47t60.5 121v39q0 88 -60.5 138t-199.5 50h-172v-395z" />
<glyph unicode="S" horiz-adv-x="1071" d="M102 231q0 96 107 97q35 -2 61.5 -19.5t48.5 -38.5q35 -33 98.5 -58.5t135.5 -25.5q82 0 129 36t47 114q0 66 -44 107.5t-111.5 74.5t-144.5 63.5t-144.5 77t-111.5 115t-44 174.5q0 86 28.5 156t82 121t131.5 78.5t176 27.5q102 0 179 -25.5t129 -62.5t79 -77t27 -66 q0 -47 -24 -77t-79 -30q-33 0 -58.5 14.5t-47.5 32.5q-25 20 -76 47t-137 27q-74 0 -121 -40t-47 -116q0 -66 44 -104.5t110.5 -69t144.5 -61.5t144.5 -77t110.5 -115.5t44 -180.5q0 -172 -113 -271t-311 -99q-31 0 -76 7t-94 21.5t-97.5 34.5t-87 48t-63.5 62.5t-25 77.5z " />
<glyph unicode="T" horiz-adv-x="1062" d="M45 1200q0 51 32 81t85 30h749q59 0 89 -30t30 -81q0 -47 -29.5 -76.5t-89.5 -29.5h-268v-1018q0 -37 -31.5 -66.5t-85.5 -29.5q-57 0 -90 29.5t-33 66.5v1018h-241q-53 0 -85 29.5t-32 76.5z" />
<glyph unicode="U" horiz-adv-x="1331" d="M150 461v774q0 37 33.5 66.5t88.5 29.5q53 0 85 -29.5t32 -66.5v-772q0 -260 268 -260q266 0 267 260v772q0 37 33.5 66.5t84.5 29.5q55 0 89 -29.5t34 -66.5v-774q0 -96 -28.5 -184.5t-90 -154t-157.5 -104t-232 -38.5q-135 0 -231 38.5t-157.5 104t-90 154t-28.5 184.5 z" />
<glyph unicode="V" horiz-adv-x="1191" d="M66 1202q-3 11 -4 22q0 25 17 51q24 38 79 52q18 5 35 5q29 0 54 -13q40 -20 52 -55l301 -938l295 936q10 35 50 55q25 13 54 13q18 0 37 -5q55 -14 78 -52q15 -26 16 -51q0 -11 -4 -22l-393 -1134q-10 -35 -47 -60.5t-86 -25.5q-51 0 -87 25.5t-46 60.5z" />
<glyph unicode="W" horiz-adv-x="1685" d="M106 1202q-3 11 -3 22q0 25 17 51q24 38 77 52q19 5 36 5q29 0 55 -13q40 -20 52 -55l154 -930l223 897q31 100 123 100q59 0 85.5 -25.5t43.5 -74.5l223 -897l154 930q10 35 51 55q26 13 54 13q17 0 36 -5q55 -14 79 -52q16 -26 16 -51q0 -11 -3 -22l-244 -1136 q-10 -35 -47 -60.5t-86 -25.5q-51 0 -87 25.5t-46 60.5l-227 847l-226 -847q-10 -35 -45.5 -60.5t-87.5 -25.5q-51 0 -87 25.5t-46 60.5z" />
<glyph unicode="X" horiz-adv-x="1122" d="M86 1238q10 42 53 69q38 23 74 23q9 0 18 -2q45 -7 68 -36l262 -456l264 456q23 29 68 36l18 2q36 0 74 -23q43 -27 52 -69q3 -13 3 -25q0 -26 -14 -46l-321 -514l317 -508q15 -21 15 -47q0 -12 -3 -25q-10 -42 -57 -73q-33 -20 -66 -20l-20 2q-43 8 -66 38l-264 451 l-262 -451q-23 -31 -67 -38q-10 -2 -20 -2q-33 0 -67 20q-47 31 -57 73q-3 13 -3 25q0 26 15 47l316 508l-318 514q-15 20 -15 46q0 12 3 25z" />
<glyph unicode="Y" horiz-adv-x="1126" d="M55 1238q10 42 54 69q38 23 74 23q9 0 18 -2q45 -7 67 -36l295 -579l297 579q23 29 68 36l18 2q36 0 74 -23q43 -27 52 -69q3 -13 3 -25q0 -26 -14 -46l-385 -700v-389q0 -37 -32 -66.5t-83 -29.5q-57 0 -90 29.5t-33 66.5v411l-370 678q-15 20 -16 46q0 12 3 25z" />
<glyph unicode="Z" horiz-adv-x="1105" d="M82 98q0 49 29 78l589 932h-491q-39 0 -69.5 24.5t-30.5 73.5q0 53 30.5 79t69.5 26h694q39 0 71 -25.5t32 -79.5q0 -47 -29 -71h2l-590 -932h535q39 0 69.5 -25.5t30.5 -79.5q0 -49 -30.5 -73.5t-69.5 -24.5h-740q-41 0 -71.5 24.5t-30.5 73.5z" />
<glyph unicode="[" horiz-adv-x="718" d="M207 -147v1388q0 53 24.5 80t73.5 39h213q66 -4 91.5 -38t21.5 -71q-4 -35 -28.5 -61.5t-84.5 -30.5h-90v-1222h80q66 -4 91.5 -40t16.5 -75q-4 -33 -29.5 -57.5t-78.5 -28.5h-203q-49 12 -73.5 39t-24.5 78z" />
<glyph unicode="\" horiz-adv-x="800" d="M55 1194q-12 35 6.5 73t67.5 54q53 18 95 2t55 -51l450 -1153q12 -35 -7.5 -74t-72.5 -57q-49 -16 -90 1t-53 52z" />
<glyph unicode="]" horiz-adv-x="718" d="M80 1251q-4 37 20.5 71t89.5 38h213q51 -12 76 -39t25 -80v-1388q0 -51 -24.5 -78t-76.5 -39h-200q-55 4 -81 28.5t-30 57.5q-6 39 19.5 74.5t91.5 40.5h80v1222h-93q-57 4 -81.5 30.5t-28.5 61.5z" />
<glyph unicode="^" horiz-adv-x="962" d="M141 799l201 461q10 29 39 50t70 21t71.5 -21.5t38.5 -49.5l201 -461q10 -29 -10.5 -60.5t-65.5 -44.5q-41 -10 -73.5 7.5t-43.5 46.5l-118 309l-117 -309q-10 -29 -44 -46.5t-75 -7.5q-45 12 -64.5 44t-9.5 61z" />
<glyph unicode="_" horiz-adv-x="985" d="M39 -113q0 51 29.5 81t66.5 30h707q57 0 86.5 -29.5t29.5 -81.5q0 -47 -29.5 -76.5t-86.5 -29.5h-707q-37 0 -66.5 29.5t-29.5 76.5z" />
<glyph unicode="`" horiz-adv-x="602" d="M51 1290q-8 41 9.5 78t52 57.5t77.5 1.5l289 -153q35 -18 44 -49t-5 -64q-16 -33 -50 -44t-56 -1l-310 115q-43 18 -51 59z" />
<glyph unicode="a" d="M125 391v180q0 86 30.5 170t90 152t149.5 109.5t211 41.5q113 0 195 -30.5t134 -85t76.5 -128t24.5 -161.5v-573q0 -37 -32.5 -67t-90.5 -30q-51 0 -82.5 30t-31.5 67v32l-19 6q-18 -27 -39.5 -49t-52.5 -39.5t-73 -26.5t-103 -9q-98 0 -172 35.5t-121 93t-70.5 131 t-23.5 151.5zM371 383q0 -74 55 -127t137 -53q45 0 87 15t75 45t53.5 75t20.5 104v193q0 102 -50.5 144t-142.5 42q-53 0 -96 -19.5t-73.5 -53t-48 -76.5t-17.5 -92v-197z" />
<glyph unicode="b" horiz-adv-x="1191" d="M150 385v911q0 37 33.5 67t88.5 30q53 0 85 -30t32 -67v-352l12 -6q41 51 102.5 78.5t139.5 27.5q113 0 195 -35.5t135 -100t79.5 -151.5t26.5 -192v-119q0 -96 -27.5 -181t-85 -149.5t-142.5 -102.5t-199 -38q-119 0 -208 31t-148.5 86t-89 130t-29.5 163zM389 377 q0 -92 67.5 -135t168.5 -43q96 0 154.5 65.5t58.5 173.5v123q0 127 -64.5 193.5t-169.5 66.5q-90 0 -150.5 -50t-64.5 -159v-235z" />
<glyph unicode="c" horiz-adv-x="962" d="M113 426v172q0 92 25.5 173t80.5 142.5t141 96t207 34.5q104 0 180 -27.5t123 -74.5q29 -29 29 -74q0 -35 -17 -63q-19 -31 -60 -43q-12 -4 -25 -4q-32 0 -72 20q-31 16 -67.5 29.5t-90.5 13.5q-106 0 -159.5 -63.5t-53.5 -171.5v-148q0 -109 53.5 -172t159.5 -63 q53 0 96.5 11t67.5 26q33 17 62 17q9 0 19 -2q38 -7 60 -33q27 -31 28 -71q0 -31 -23 -63q-39 -53 -124 -80.5t-186 -27.5q-121 0 -207 34.5t-141 96t-80.5 142.5t-25.5 173z" />
<glyph unicode="d" d="M106 446v134q0 96 25 181t76 148.5t131 100.5t192 37q84 0 148.5 -34t105.5 -81l15 2v375q0 37 31.5 66.5t82.5 29.5q57 0 90 -29.5t33 -66.5v-883q0 -96 -28.5 -178t-85 -141.5t-141.5 -93t-197 -33.5q-121 0 -210 36.5t-148.5 100t-89.5 148.5t-30 181zM348 438 q0 -109 64.5 -172t171.5 -63q90 0 152.5 51t62.5 164v196q-4 109 -66.5 159t-148.5 50q-106 0 -171 -63.5t-65 -171.5v-150z" />
<glyph unicode="e" horiz-adv-x="1099" d="M109 389v217q0 90 33.5 170t93 139.5t141.5 94t180 34.5q117 0 199 -37.5t134 -98t76.5 -134.5t24.5 -145q0 -96 -36.5 -135t-123.5 -39h-485v-54q0 -98 60.5 -157.5t171.5 -59.5q55 0 101 7.5t73 19.5l55 29q27 14 49 14q41 0 63.5 -24.5t24.5 -63.5q0 -33 -28.5 -65.5 t-78 -59.5t-116 -44t-141.5 -17q-104 0 -190.5 32.5t-149 88t-97 130t-34.5 158.5zM346 633h418v31q0 84 -58.5 133t-150.5 49t-146.5 -58.5t-62.5 -154.5z" />
<glyph unicode="f" horiz-adv-x="749" d="M47 932q0 41 26.5 66.5t61.5 25.5h72v61q0 193 93 271t273 78q45 0 86 -8.5t73 -26t50.5 -42t18.5 -54.5q0 -45 -23.5 -72t-70.5 -27q-35 0 -63 8.5t-71 8.5q-72 0 -100.5 -29t-28.5 -98v-70h158q35 0 61.5 -25.5t26.5 -66.5q0 -45 -26.5 -70.5t-61.5 -25.5h-158v-760 q0 -37 -31.5 -66.5t-82.5 -29.5q-57 0 -90 29.5t-33 66.5v760h-72q-35 0 -61.5 25.5t-26.5 70.5z" />
<glyph unicode="g" horiz-adv-x="1163" d="M113 428v121q0 96 29.5 186t89 159t148.5 111t210 42q113 0 194.5 -30t134 -82t77 -124t24.5 -154v-657q0 -115 -37 -198t-99.5 -137t-144.5 -80.5t-172 -26.5q-78 0 -139 8t-88 18q-68 43 -68 105q0 45 28 71.5t85 26.5q23 0 65 -8t117 -8q47 0 86 9t68 34.5t45 69.5 t16 116v100l-8 4q-33 -55 -95.5 -89.5t-164.5 -34.5q-193 0 -297 119.5t-104 328.5zM354 420q0 -217 213 -217q86 0 148.5 50t66.5 157v256q0 80 -50 118.5t-142 38.5q-53 0 -96 -21.5t-74 -57t-48.5 -84t-17.5 -103.5v-137z" />
<glyph unicode="h" horiz-adv-x="1208" d="M150 76v1220q0 37 33.5 67t88.5 30q53 0 85 -30t32 -67v-383l12 -2q37 59 100.5 97.5t153.5 38.5q113 0 190 -36t124 -96.5t68.5 -140.5t21.5 -168v-530q0 -37 -35 -66.5t-88 -29.5t-86 29.5t-33 66.5v528q0 98 -54 158.5t-159 60.5q-90 0 -150.5 -50t-64.5 -159v-538 q0 -37 -31.5 -66.5t-85.5 -29.5q-55 0 -88.5 29.5t-33.5 66.5z" />
<glyph unicode="i" horiz-adv-x="567" d="M164 76v872q0 37 33.5 66.5t89.5 29.5q53 0 84.5 -29.5t31.5 -66.5v-872q0 -37 -31.5 -66.5t-84.5 -29.5q-55 0 -89 29.5t-34 66.5zM164 1268v49q0 37 33.5 66.5t89.5 29.5q53 0 84.5 -29.5t31.5 -66.5v-49q0 -37 -31.5 -67t-84.5 -30q-55 0 -89 30t-34 67z" />
<glyph unicode="j" horiz-adv-x="634" d="M-123 -291q0 45 22.5 71.5t69.5 26.5q35 0 63.5 -8t69.5 -8q72 0 100.5 34t28.5 114v1009q0 37 32 66.5t85 29.5q57 0 90 -29.5t33 -66.5v-1001q0 -203 -94 -286t-275 -83q-43 0 -84 6t-72.5 21.5t-50 40t-18.5 63.5zM229 1268v49q0 37 33 66.5t90 29.5q53 0 85 -29.5 t32 -66.5v-49q0 -37 -31.5 -67t-85.5 -30q-57 0 -90 30t-33 67z" />
<glyph unicode="k" horiz-adv-x="1075" d="M150 78v1218q0 37 33.5 67t88.5 30q53 0 85 -30t32 -67v-641h94l297 361q29 27 78 27h3q48 0 85 -35q29 -32 29 -71q0 -8 -1 -15q-7 -47 -36 -72l-264 -291l325 -407q18 -22 19 -52q0 -10 -2 -20q-8 -43 -55 -76q-34 -24 -70 -24q-8 0 -15 2q-44 6 -67 34l-330 430h-90 v-368q0 -37 -31.5 -66.5t-85.5 -29.5q-55 0 -88.5 29.5t-33.5 66.5z" />
<glyph unicode="l" horiz-adv-x="567" d="M164 76v1220q0 37 33.5 67t89.5 30q53 0 84.5 -30t31.5 -67v-1220q0 -37 -31.5 -66.5t-84.5 -29.5q-55 0 -89 29.5t-34 66.5z" />
<glyph unicode="m" horiz-adv-x="1730" d="M143 76v516q0 96 18.5 179t64.5 143.5t124 94t197 33.5t195.5 -44t121.5 -115q47 72 123 115.5t199 43.5q119 0 196.5 -33.5t122.5 -94t63.5 -143.5t18.5 -179v-516q0 -37 -32.5 -66.5t-90.5 -29.5q-51 0 -82.5 29.5t-31.5 66.5v524q0 113 -42 166t-143 53 q-178 0 -178 -219v-532l-4 -19l-4 -6q-2 -4 -3 -7t-5 -7q-14 -20 -39 -33.5t-58 -15.5h-10q-47 0 -77.5 22.5t-38.5 54.5l-3 4v539q0 219 -178 219q-102 0 -143 -53t-41 -166v-524q0 -37 -32 -66.5t-85 -29.5q-55 0 -89 29.5t-34 66.5z" />
<glyph unicode="n" horiz-adv-x="1196" d="M143 76v518q0 96 29 179t86 143.5t142 94t198 33.5t198 -30.5t142 -87t86 -136t29 -176.5v-538q0 -37 -35 -66.5t-88 -29.5t-86 29.5t-33 66.5v526q0 113 -60.5 166t-152.5 53t-153.5 -53t-61.5 -166v-526q0 -37 -32 -66.5t-85 -29.5q-55 0 -89 29.5t-34 66.5z" />
<glyph unicode="o" horiz-adv-x="1155" d="M113 434v141q0 96 27.5 181.5t84 150t144.5 101t209 36.5q119 0 206.5 -36.5t145 -101t85 -149.5t27.5 -182v-141q0 -92 -27.5 -174t-85 -143.5t-145.5 -97t-206 -35.5q-121 0 -209 35.5t-144.5 97t-84 143.5t-27.5 174zM354 432q0 -113 59.5 -174t164.5 -61 q104 0 163.5 61t59.5 174v148q0 123 -59.5 186t-163.5 63t-164 -63.5t-60 -185.5v-148z" />
<glyph unicode="p" horiz-adv-x="1191" d="M150 -354v989q0 88 28.5 162.5t86 130t142.5 86t197 30.5q119 0 209 -37.5t148.5 -102t88 -149.5t29.5 -182v-120q0 -96 -24.5 -181.5t-75.5 -150t-131 -102t-193 -37.5q-84 0 -144 29.5t-105 78.5l-17 -4v-440q0 -37 -31.5 -67t-85.5 -30q-55 0 -88.5 30t-33.5 67z M389 424q0 -113 61.5 -166t153.5 -53q104 0 169 65.5t65 173.5v138q0 109 -64.5 174t-169.5 65q-92 0 -153.5 -43t-61.5 -135v-219z" />
<glyph unicode="q" d="M106 451v122q0 96 30 181.5t89.5 150t148.5 102t210 37.5q113 0 197.5 -30.5t141 -86t85 -130t28.5 -162.5v-989q0 -37 -32.5 -67t-90.5 -30q-51 0 -82.5 30t-31.5 67v446l-13 4q-45 -53 -107.5 -84.5t-148.5 -31.5q-113 0 -192.5 37.5t-130.5 102t-76 150t-25 181.5z M348 442q0 -109 64.5 -174t171.5 -65q86 0 148.5 50t66.5 157v233q0 92 -62.5 135t-152.5 43q-106 0 -171 -65.5t-65 -173.5v-140z" />
<glyph unicode="r" horiz-adv-x="804" d="M150 76v563q0 195 104 300t332 105q104 0 158 -40q44 -33 45 -89q0 -12 -3 -26q-6 -37 -26.5 -52.5t-49 -18.5t-61.5 0t-63 3q-45 0 -82 -6t-62.5 -24.5t-39 -53.5t-13.5 -90v-571q0 -37 -31.5 -66.5t-85.5 -29.5q-55 0 -88.5 29.5t-33.5 66.5z" />
<glyph unicode="s" horiz-adv-x="966" d="M104 158q-1 5 0 10q0 13 4 27q5 18 16 34.5t32 24.5q29 12 50 12t37.5 -7t30.5 -18l29 -22q59 -45 186 -45q66 0 106 28.5t40 76.5q0 47 -37 74.5t-93 47t-121 39t-121 53t-93 87t-37 143.5q0 143 100.5 232t276.5 89q78 0 135 -13t95 -31.5t59.5 -40t29.5 -39.5 q12 -24 12 -54v-13q-3 -38 -32 -58q-30 -20 -58 -20q-9 0 -18 2q-35 9 -63 26q-16 8 -52 23.5t-108 15.5q-66 0 -99.5 -32t-33.5 -79q0 -39 36 -60.5t90 -38.5l118 -37q63 -19 117.5 -55t90 -95.5t35.5 -153.5q0 -143 -100 -227t-275 -84q-63 0 -123.5 11t-110.5 31.5 t-87 47t-55 57.5q-7 13 -9 31z" />
<glyph unicode="t" horiz-adv-x="847" d="M41 932q0 41 26.5 66.5t61.5 25.5h82v211q0 37 32.5 66.5t90.5 29.5q53 0 85 -29.5t32 -66.5v-211h151q35 0 61.5 -25.5t26.5 -66.5q0 -45 -26.5 -70.5t-61.5 -25.5h-151v-496q0 -86 22.5 -116.5t65.5 -30.5q41 0 69.5 7t65.5 7q47 0 68.5 -25.5t21.5 -70.5 q0 -39 -20.5 -63.5t-54.5 -40t-78 -21.5t-93 -6q-160 0 -233.5 82.5t-73.5 285.5v488h-82q-35 0 -61.5 25.5t-26.5 70.5z" />
<glyph unicode="u" horiz-adv-x="1196" d="M143 430v516q0 37 34 66.5t89 29.5q53 0 85 -29.5t32 -66.5v-524q0 -113 61.5 -166t153.5 -53t152.5 53t60.5 166v524q0 37 33 66.5t86 29.5t88 -29.5t35 -66.5v-516q0 -96 -29 -179t-86 -143.5t-142 -94t-198 -33.5t-198 33.5t-142 94t-86 143.5t-29 179z" />
<glyph unicode="v" horiz-adv-x="1105" d="M90 913q-3 11 -3 22q0 25 15 51q23 38 78 52q19 5 37 5q29 0 54 -13q40 -20 51 -55l231 -696l229 696q12 35 53 55q25 13 53 13q17 0 36 -5q55 -14 78 -52q16 -26 17 -51q0 -11 -3 -22l-330 -847q-10 -35 -47 -60.5t-86 -25.5q-51 0 -87 25.5t-46 60.5z" />
<glyph unicode="w" horiz-adv-x="1701" d="M150 430v518q0 37 33.5 66.5t88.5 29.5q53 0 85 -29.5t32 -66.5v-526q0 -113 40 -166t132 -53t131 53t39 166v534q0 18 12.5 35t31 28t40 18t39.5 7q41 0 80 -24.5t39 -69.5v-528q0 -113 39 -166t131 -53q90 0 131 53t41 166v526q0 37 31.5 66.5t83.5 29.5 q57 0 89.5 -29.5t32.5 -66.5v-518q0 -96 -18 -179t-63.5 -143.5t-120 -94t-187.5 -33.5q-121 0 -194.5 41.5t-116.5 113.5q-45 -72 -120 -113.5t-191 -41.5q-113 0 -189 33.5t-121 94t-63 143.5t-18 179z" />
<glyph unicode="x" horiz-adv-x="1085" d="M110 953q9 42 54 69q38 23 73 23q9 0 18 -2q44 -7 67 -35l221 -316l221 316q23 29 66 35l18 2q36 0 74 -23q45 -27 54 -69q3 -12 3 -23q0 -27 -16 -47l-277 -373l275 -365q15 -21 15 -47q0 -12 -3 -25q-10 -42 -58 -73q-33 -20 -66 -20q-10 0 -21 2q-44 8 -64 38 l-221 308l-221 -308q-20 -31 -65 -38q-10 -2 -21 -2q-33 0 -66 20q-47 31 -57 73q-3 13 -4 25q0 26 16 47l272 365l-274 373q-16 20 -16 47q0 11 3 23z" />
<glyph unicode="y" horiz-adv-x="1179" d="M150 412v538q0 37 34.5 67t87.5 30t86 -30t33 -67v-547q0 -96 43 -147t150 -51q74 0 130 35.5t77 111.5v606q-2 31 31.5 60t88.5 29q53 0 86 -30t33 -67v-1022q-2 -98 -35.5 -170.5t-92 -119t-137.5 -69t-167 -22.5q-100 0 -159.5 8.5t-88.5 18.5q-68 43 -67 104 q0 45 28.5 72t85.5 27q23 0 76 -8.5t125 -8.5q96 0 144.5 44t48.5 124v156l-11 4q-45 -53 -103.5 -79.5t-146.5 -26.5q-113 0 -186.5 31.5t-116.5 89t-60 136.5t-17 173z" />
<glyph unicode="z" horiz-adv-x="1112" d="M106 98q0 49 29 78l498 645h-424q-39 0 -71 24.5t-32 74.5q0 53 32 78.5t71 25.5h649q39 0 69.5 -25.5t30.5 -78.5q0 -43 -26 -70l2 -2l-498 -645h467q39 0 70 -25.5t31 -79.5q0 -49 -31 -73.5t-70 -24.5h-694q-39 0 -71 24.5t-32 73.5z" />
<glyph unicode="{" horiz-adv-x="872" d="M90 602q0 39 27.5 65.5t75.5 26.5q102 0 140 94.5t1 249.5q-18 76 -13 154t36.5 141.5t91 103.5t149.5 40q25 0 53.5 -4.5t53 -14.5t41 -28.5t16.5 -49.5q0 -55 -34 -69.5t-71 -14.5q-63 0 -78.5 -33.5t-15.5 -78.5q0 -78 18.5 -142.5t18.5 -130.5q0 -145 -47 -214.5 t-115 -90.5v-8q68 -20 115 -90t47 -215q0 -68 -18.5 -127.5t-18.5 -122.5q0 -53 15.5 -94t78.5 -41q37 0 71 -14.5t34 -67.5q0 -31 -16.5 -50.5t-41 -29.5t-53 -14t-53.5 -4q-90 0 -149.5 39.5t-91 103t-37 141.5t13.5 154q37 156 -1 250t-140 94q-47 0 -75 26.5t-28 65.5z " />
<glyph unicode="|" horiz-adv-x="497" d="M129 -188v1538q0 37 33 66.5t90 29.5q51 0 84 -30t33 -66v-1538q0 -37 -33 -67t-84 -30q-57 0 -90 30t-33 67z" />
<glyph unicode="}" horiz-adv-x="872" d="M113 -176q0 55 32.5 69.5t69.5 14.5q63 0 78.5 33.5t15.5 78.5q0 78 -18.5 142.5t-18.5 130.5q0 145 47.5 215t114.5 90v8q-68 20 -115 90t-47 215q0 68 18.5 127.5t18.5 122.5q0 53 -15 94t-79 41q-37 0 -69.5 14.5t-32.5 67.5q0 31 16 50.5t41 29.5t52.5 14.5t51.5 4.5 q90 0 149.5 -40t92.5 -103.5t38 -141.5t-13 -154q-39 -156 0 -250t139 -94q47 0 74.5 -26.5t27.5 -65.5t-27.5 -65.5t-74.5 -26.5q-100 0 -139 -94t0 -250q18 -76 13 -154t-38 -141.5t-92 -103t-150 -39.5q-25 0 -52 4t-52 14t-41 28.5t-16 49.5z" />
<glyph unicode="~" horiz-adv-x="1447" d="M106 618q0 59 27 110.5t73 90.5t109.5 60.5t139.5 21.5q98 0 166.5 -35t125 -76.5t110.5 -76.5t126 -35q53 0 76.5 29.5t41 64.5t41 64.5t77.5 29.5q41 0 75.5 -25.5t44.5 -78.5q0 -68 -32.5 -120t-85 -89t-118 -55.5t-130.5 -18.5q-70 0 -120 15.5t-90 40t-72 51.5 l-61 51q-30 25 -64 40t-74 15q-37 0 -71 -8t-56 -39q-10 -14 -13.5 -38.5t-14.5 -49.5t-36 -42t-76 -17q-45 0 -82 30.5t-37 89.5z" />
<glyph unicode="&#xa1;" horiz-adv-x="524" d="M383.01 952.005v-48.9971q0 -36.998 -32.498 -66.4961t-88.4951 -29.498q-52.9961 0 -84.4941 29.498t-31.498 66.4961v48.9971q0 36.998 31.498 66.4961t84.4941 29.498q54.9971 0 87.9951 -29.498t32.998 -66.4961zM383.01 557.029v-761.954 q0 -36.9971 -32.498 -66.4961q-32.498 -29.498 -88.4951 -29.498q-52.9961 0 -84.4941 29.498q-31.498 29.499 -31.498 66.4961v761.954q0 36.9971 31.498 66.4951q31.498 29.499 84.4941 29.499q54.9971 0 87.9951 -29.499q32.998 -29.498 32.998 -66.4951z" />
<glyph unicode="&#xa2;" horiz-adv-x="1064" d="M129 487v50q0 92 20.5 175t62.5 150.5t108.5 113.5t158.5 62v107q0 51 33 77.5t73 26.5t72.5 -26.5t32.5 -77.5v-107q111 -23 178.5 -77t67.5 -119q0 -33 -8 -56.5t-41 -42.5q-20 -12 -41 -12t-40.5 8.5t-37.5 19.5l-33 21q-29 18 -63.5 31.5t-87.5 13.5 q-106 0 -159.5 -76.5t-53.5 -203.5v-66q0 -127 53 -203.5t160 -76.5q53 0 85.5 9t61.5 25q20 12 40 25.5t38 23t37.5 10.5t40.5 -11q33 -18 41 -42t8 -57q0 -66 -68.5 -121t-177.5 -75v-152q0 -53 -32.5 -78.5t-72.5 -25.5t-73 25.5t-33 78.5v152q-92 16 -158.5 62 t-108.5 112.5t-62.5 150.5t-20.5 176z" />
<glyph unicode="&#xa3;" horiz-adv-x="944" d="M-92 639q0 41 25.5 76t76.5 35h101v110q0 123 23.5 209t74.5 141.5t131 81t192 25.5q113 0 194 -37t140 -90q37 -33 36 -73t-25.5 -68.5t-68.5 -35.5t-95 23q-10 6 -25.5 18.5t-37 25t-51.5 22.5t-67 10q-88 0 -125.5 -58.5t-37.5 -193.5v-110h227q51 0 75.5 -35 t24.5 -76t-24.5 -76t-75.5 -35h-227v-137q0 -47 -5.5 -82t-11.5 -57l-14 -47h526q41 0 63.5 -32t23.5 -71t-19.5 -70.5t-67.5 -31.5h-774q-43 0 -67.5 20.5t-28.5 51t11 66.5t50 65q20 16 31.5 30.5t17 36t6.5 56t1 92.5v110h-101q-51 0 -76.5 35t-25.5 76z" />
<glyph unicode="&#xa5;" horiz-adv-x="1093" d="M30.5 1236q10.5 42 53.5 69q47 29 92 21.5t68 -36.5l305 -557l307 557q23 29 68 36t92 -21q43 -27 52 -69t-11 -71l-289 -495h113q94 0 94 -88q0 -37 -24.5 -59.5t-69.5 -22.5h-211l-8 -17v-98h219q45 0 69.5 -23.5t24.5 -64.5q0 -37 -24.5 -59.5t-69.5 -22.5h-219v-137 q0 -37 -32 -66.5t-83 -29.5q-57 0 -90 29.5t-33 66.5v137h-238q-31 0 -53 22.5t-22 59.5q0 41 22.5 64.5t52.5 23.5h238v115h-238q-31 0 -53 22.5t-22 59.5q0 41 22.5 64.5t52.5 23.5h144l-287 495q-23 29 -12.5 71z" />
<glyph unicode="&#xa8;" horiz-adv-x="884" d="M88 1151v51q0 39 35.5 69.5t97.5 30.5q55 0 91 -30.5t36 -69.5v-51q0 -39 -36 -69.5t-91 -30.5q-61 0 -97 30.5t-36 69.5zM539 1151v51q0 39 35.5 69.5t97.5 30.5q55 0 91 -30.5t36 -69.5v-51q0 -39 -36 -69.5t-91 -30.5q-61 0 -97 30.5t-36 69.5z" />
<glyph unicode="&#xa9;" horiz-adv-x="1789" d="M43 518q0 174 60.5 323.5t172 258t268 170t351.5 61.5q193 0 350.5 -61.5t269 -170t172 -258t60.5 -323.5q0 -180 -60.5 -331.5t-172 -262t-269.5 -173t-350 -62.5q-195 0 -351.5 62.5t-268 173t-172 262t-60.5 331.5zM225 518q0 -147 47 -270t135.5 -213t211 -140.5 t276.5 -50.5q152 0 275.5 50.5t210.5 140.5t134.5 213t47.5 270q0 141 -47.5 262t-134.5 209t-210.5 137.5t-275.5 49.5q-154 0 -276.5 -49.5t-211 -137.5t-135.5 -209t-47 -262zM514 375v278q0 80 24.5 149.5t71.5 123t118 84t163 30.5q61 0 114.5 -14t92.5 -37.5 t60.5 -54.5t21.5 -64t-19.5 -50t-44.5 -17q-27 0 -48 7t-48 26q-27 16 -55.5 26t-75.5 10q-78 0 -132.5 -50t-54.5 -158v-302q0 -109 54.5 -158.5t132.5 -49.5q47 0 74.5 7t52.5 21q37 23 54 30t48 7t46.5 -18.5t15.5 -44.5q0 -33 -21.5 -64t-60.5 -54.5t-92.5 -37.5 t-114.5 -14q-92 0 -163 30.5t-118 84t-71.5 124t-24.5 150.5z" />
<glyph unicode="&#xaa;" d="M125 391v180q0 86 30.5 170t90 152t149.5 109.5t211 41.5q113 0 195 -30.5t134 -85t76.5 -128t24.5 -161.5v-573q0 -37 -32.5 -67t-90.5 -30q-51 0 -82.5 30t-31.5 67v32l-19 6q-18 -27 -39.5 -49t-52.5 -39.5t-73 -26.5t-103 -9q-98 0 -172 35.5t-121 93t-70.5 131 t-23.5 151.5zM371 383q0 -74 55 -127t137 -53q45 0 87 15t75 45t53.5 75t20.5 104v193q0 102 -50.5 144t-142.5 42q-53 0 -96 -19.5t-73.5 -53t-48 -76.5t-17.5 -92v-197z" />
<glyph unicode="&#xab;" horiz-adv-x="1150" d="M108.5 501.5q-2.5 24.5 12.5 57.5l262 350q33 37 76 36t76.5 -25.5t47 -63.5t-11.5 -78l-192 -270l205 -301q14 -37 -1.5 -73t-46 -58.5t-69.5 -25.5t-74 26l-264 370q-18 31 -20.5 55.5zM559.5 501.5q-2.5 24.5 12.5 57.5l262 350q33 37 76 36t76.5 -25.5t47 -63.5 t-11.5 -78l-192 -270l205 -301q14 -37 -1.5 -73t-46 -58.5t-69.5 -25.5t-74 26l-264 370q-18 31 -20.5 55.5z" />
<glyph unicode="&#xad;" horiz-adv-x="913" d="M172 600q0 51 29.5 81t66.5 30h365q57 0 87 -30t30 -81q0 -47 -30 -76.5t-87 -29.5h-365q-37 0 -66.5 29.5t-29.5 76.5z" />
<glyph unicode="&#xae;" horiz-adv-x="1789" d="M43 518q0 180 60.5 331.5t172 262.5t268 173.5t351.5 62.5q193 0 350.5 -62.5t269 -173.5t172 -262.5t60.5 -331.5t-60.5 -331.5t-172 -262t-269.5 -173t-350 -62.5q-195 0 -351.5 62.5t-268 173t-172 262t-60.5 331.5zM225 518q0 -147 47 -270t135.5 -213t211 -140.5 t276.5 -50.5q152 0 275.5 50.5t210.5 140.5t134.5 213t47.5 270t-47.5 270t-134.5 213.5t-210.5 140.5t-275.5 50q-154 0 -276.5 -50t-211 -140.5t-135.5 -213.5t-47 -270zM584 92v846q0 29 25.5 50.5t66.5 21.5h217q102 0 174 -21.5t116 -59.5t63.5 -93.5t19.5 -122.5v-11 q0 -78 -36 -133t-126 -90l168 -348q16 -23 5 -53.5t-48 -50.5q-33 -16 -64.5 -8t-46.5 30l-172 367q-12 -2 -25 -2h-28h-129v-330q0 -29 -23.5 -48.5t-64.5 -19.5t-66.5 23.5t-25.5 52.5zM764 561h129q104 0 148 36t44 89v31q0 66 -44 102.5t-148 36.5h-129v-295z" />
<glyph unicode="&#xaf;" horiz-adv-x="1116" d="M117.673 1201.38q0 47.6318 29.1494 75.6504q29.1494 28.0195 63.9404 28.0195h645.052q53.5977 0 81.8066 -28.0195q28.209 -28.0186 28.209 -75.6504q0 -43.8965 -28.209 -71.4482t-81.8066 -27.5518h-645.052q-34.791 0 -63.9404 27.5518t-29.1494 71.4482z" />
<glyph unicode="&#xb0;" horiz-adv-x="694" d="M43 1032q0 61 24.5 114.5t65.5 93.5t97.5 62.5t119.5 22.5q61 0 115.5 -22.5t95.5 -62.5t65.5 -93t24.5 -115q0 -57 -24.5 -109.5t-65.5 -91t-95 -62.5t-116 -24q-63 0 -119.5 24t-97.5 62.5t-65.5 91t-24.5 109.5zM221 1032q0 -51 38 -84t91 -33t88 33t35 84t-35 87 t-88 36t-91 -36t-38 -87z" />
<glyph unicode="&#xb2;" horiz-adv-x="1112" d="M146.5 999.5q-9.5 30.5 0.5 63.5q6 29 33 74t79 88t132 74.5t193 31.5q111 0 187.5 -27.5t124.5 -75.5t68.5 -114.5t20.5 -144.5q0 -84 -36 -156t-92 -136.5t-125 -123.5l-131 -117q-62 -57 -112.5 -114.5t-70.5 -118.5h493q39 0 70 -25.5t31 -79.5q0 -49 -31 -73.5 t-70 -24.5h-653q-39 0 -70.5 24.5t-31.5 73.5q0 4 -1 7.5t1 7.5q2 106 48 194t111.5 161t142.5 136l142 122q66 58 109 113.5t43 116.5q0 76 -36 120t-134 44q-49 0 -82 -7t-58.5 -23.5t-48 -43t-49.5 -63.5q-20 -29 -60 -43t-87 8q-41 21 -50.5 51.5z" />
<glyph unicode="&#xb3;" horiz-adv-x="1107" d="M106 203q0 41 25 68.5t59 27.5q35 0 63 -7t60 -34q41 -37 94.5 -56.5t106.5 -19.5q129 0 190.5 52.5t61.5 125.5v35q0 68 -62.5 119t-185.5 51h-84q-53 0 -85 24.5t-32 72.5q0 51 32 75.5t85 24.5h84q90 0 145.5 42t55.5 101v39q0 74 -50.5 126t-150.5 52 q-59 0 -106 -20.5t-78 -40.5q-35 -23 -52.5 -29t-52.5 -6t-58.5 22.5t-23.5 63.5q0 35 29 74t79 70.5t117.5 53t145.5 21.5q119 0 203 -28.5t136 -76.5t75.5 -111.5t23.5 -133.5v-31q0 -88 -51 -161.5t-143 -114.5q121 -35 179 -115t58 -184v-19q0 -70 -21.5 -137 t-75.5 -120.5t-148.5 -86t-239.5 -32.5q-76 0 -149.5 19t-131 52t-92.5 72t-35 80z" />
<glyph unicode="&#xb4;" horiz-adv-x="602" d="M25.5 1234q11.5 32 33.5 42l289 154q43 18 80 -3.5t54.5 -58.5t10 -78t-50.5 -59l-307 -115q-25 -10 -56.5 5.5t-47.5 47.5q-17 33 -5.5 65z" />
<glyph unicode="&#xb6;" horiz-adv-x="1083" d="M150 860v14q0 90 24.5 169t74.5 138.5t129 94.5t187 35h180q57 0 90 -30t33 -67v-1128q0 -37 -32.5 -71.5t-90.5 -34.5q-51 0 -82.5 29.5t-31.5 66.5v385h-66q-115 0 -194.5 33.5t-128.5 89t-70.5 127t-21.5 149.5z" />
<glyph unicode="&#xb7;" horiz-adv-x="497" d="M113 645v51q0 39 35.5 69.5t97.5 30.5q55 0 91 -30.5t36 -69.5v-51q0 -39 -36 -69.5t-91 -30.5q-61 0 -97 30.5t-36 69.5z" />
<glyph unicode="&#xb8;" horiz-adv-x="622" d="M107.5 -252q-7.5 29 3 52.5t35 34.5t59.5 -3q27 -12 52.5 -19.5t47 -6.5t35.5 12.5t20 34.5q12 43 -6 91t-73 130l137 2q41 -47 73.5 -109.5t26.5 -132.5q-4 -57 -42 -98t-92 -60.5t-118.5 -14.5t-122.5 40q-28 18 -35.5 47z" />
<glyph unicode="&#xb9;" horiz-adv-x="770" d="M63 1200q0 51 32 81t85 30h324q51 0 82.5 -30t31.5 -67v-1138q0 -37 -31.5 -66.5t-82.5 -29.5q-57 0 -90 29.5t-33 66.5v1018h-201q-53 0 -85 29.5t-32 76.5z" />
<glyph unicode="&#xba;" horiz-adv-x="1155" d="M113 434v141q0 96 27.5 181.5t84 150t144.5 101t209 36.5q119 0 206.5 -36.5t145 -101t85 -149.5t27.5 -182v-141q0 -92 -27.5 -174t-85 -143.5t-145.5 -97t-206 -35.5q-121 0 -209 35.5t-144.5 97t-84 143.5t-27.5 174zM354 432q0 -113 59.5 -174t164.5 -61 q104 0 163.5 61t59.5 174v148q0 123 -59.5 186t-163.5 63t-164 -63.5t-60 -185.5v-148z" />
<glyph unicode="&#xbb;" horiz-adv-x="1161" d="M115.5 139q-13.5 39 11.5 78l192 270l-202 301q-16 37 -1 73t46 58.5t69.5 25.5t73.5 -25l264 -371q18 -31 20.5 -55.5t-11.5 -57.5l-263 -350q-35 -37 -76.5 -36t-75.5 25.5t-47.5 63.5zM578.5 139q-13.5 39 11.5 78l192 270l-202 301q-16 37 -1 73t46 58.5t69.5 25.5 t73.5 -25l264 -371q18 -31 20.5 -55.5t-11.5 -57.5l-263 -350q-35 -37 -76.5 -36t-75.5 25.5t-47.5 63.5z" />
<glyph unicode="&#xbc;" horiz-adv-x="2998" d="M1869 387q0 14 1.5 28.5t11.5 30.5l426 842q23 33 62.5 42t88.5 -19q43 -25 55.5 -66t-8.5 -74l-354 -682h359v256q0 37 32.5 67t89.5 30q51 0 83 -30t32 -67v-256h66q119 0 118 -106q0 -47 -29.5 -74.5t-88.5 -27.5h-66v-205q0 -37 -31.5 -66.5t-83.5 -29.5 q-57 0 -89.5 29.5t-32.5 66.5v205h-545q-37 0 -67 29.5t-30 76.5zM1581 1286q20 29 65.5 36t94.5 -24q41 -29 50 -68.5t-11 -70.5l-785 -1139q-23 -31 -65.5 -39t-87.5 21q-47 29 -56.5 71t13.5 74zM63 1200q0 51 32 81t85 30h324q51 0 82.5 -30t31.5 -67v-1138 q0 -37 -31.5 -66.5t-82.5 -29.5q-57 0 -90 29.5t-33 66.5v1018h-201q-53 0 -85 29.5t-32 76.5z" />
<glyph unicode="&#xbd;" horiz-adv-x="2918" d="M1952.5 999.5q-9.5 30.5 0.5 63.5q6 29 33 74t79 88t132 74.5t193 31.5q111 0 187.5 -27.5t124.5 -75.5t68.5 -114.5t20.5 -144.5q0 -84 -36 -156t-92 -136.5t-125 -123.5l-131 -117q-62 -57 -112.5 -114.5t-70.5 -118.5h493q39 0 70 -25.5t31 -79.5q0 -49 -31 -73.5 t-70 -24.5h-653q-39 0 -70.5 24.5t-31.5 73.5q0 4 -1 7.5t1 7.5q2 106 48 194t111.5 161t142.5 136l142 122q66 58 109 113.5t43 116.5q0 76 -36 120t-134 44q-49 0 -82 -7t-58.5 -23.5t-48 -43t-49.5 -63.5q-20 -29 -60 -43t-87 8q-41 21 -50.5 51.5zM1581 1286 q20 29 65.5 36t94.5 -24q41 -29 50 -68.5t-11 -70.5l-785 -1139q-23 -31 -65.5 -39t-87.5 21q-47 29 -56.5 71t13.5 74zM63 1200q0 51 32 81t85 30h324q51 0 82.5 -30t31.5 -67v-1138q0 -37 -31.5 -66.5t-82.5 -29.5q-57 0 -90 29.5t-33 66.5v1018h-201q-53 0 -85 29.5 t-32 76.5z" />
<glyph unicode="&#xbe;" horiz-adv-x="3336" d="M2207 387q0 14 1.5 28.5t11.5 30.5l426 842q23 33 62.5 42t88.5 -19q43 -25 55.5 -66t-8.5 -74l-354 -682h359v256q0 37 32.5 67t89.5 30q51 0 83 -30t32 -67v-256h66q119 0 118 -106q0 -47 -29.5 -74.5t-88.5 -27.5h-66v-205q0 -37 -31.5 -66.5t-83.5 -29.5 q-57 0 -89.5 29.5t-32.5 66.5v205h-545q-37 0 -67 29.5t-30 76.5zM1919 1286q20 29 65.5 36t94.5 -24q41 -29 50 -68.5t-11 -70.5l-785 -1139q-23 -31 -65.5 -39t-87.5 21q-47 29 -56.5 71t13.5 74zM106 203q0 41 25 68.5t59 27.5q35 0 63 -7t60 -34q41 -37 94.5 -56.5 t106.5 -19.5q129 0 190.5 52.5t61.5 125.5v35q0 68 -62.5 119t-185.5 51h-84q-53 0 -85 24.5t-32 72.5q0 51 32 75.5t85 24.5h84q90 0 145.5 42t55.5 101v39q0 74 -50.5 126t-150.5 52q-59 0 -106 -20.5t-78 -40.5q-35 -23 -52.5 -29t-52.5 -6t-58.5 22.5t-23.5 63.5 q0 35 29 74t79 70.5t117.5 53t145.5 21.5q119 0 203 -28.5t136 -76.5t75.5 -111.5t23.5 -133.5v-31q0 -88 -51 -161.5t-143 -114.5q121 -35 179 -115t58 -184v-19q0 -70 -21.5 -137t-75.5 -120.5t-148.5 -86t-239.5 -32.5q-76 0 -149.5 19t-131 52t-92.5 72t-35 80z" />
<glyph unicode="&#xbf;" horiz-adv-x="1077" d="M962.005 14.5615q7.99902 -30.498 0 -63.4961q-6 -28.998 -35.498 -72.9951q-29.498 -43.998 -83.9951 -84.9951q-54.4961 -40.9971 -136.491 -70.4961q-81.9951 -29.498 -193.988 -29.498q-110.993 0 -188.988 32.498t-124.992 85.9951 q-46.9971 53.4961 -68.4961 120.992t-21.499 139.492q0 71.9951 25.499 121.992q25.498 49.9971 64.4961 86.4941q38.9971 36.498 83.9941 65.4961q44.998 28.999 83.9951 61.4971q38.998 32.4971 64.4961 72.4951t25.498 97.9941v33.998q0 28.998 29.999 61.9961 q29.998 32.998 78.9951 34.998q54.9961 2 86.9941 -27.999q31.998 -29.998 31.998 -64.9951q0 -93.9951 -25.998 -157.491t-62.4961 -108.493t-81.4951 -77.4951t-81.9951 -63.4961t-62.4961 -64.4961t-25.498 -83.4951q0 -79.9951 45.9971 -118.492 q45.9971 -38.498 123.992 -38.498q48.9971 0 83.4951 6q34.498 5.99902 63.4961 20.498t53.4961 38.998q24.499 24.498 51.4971 61.4961q19.999 28.998 59.9961 42.9971q39.998 13.999 86.9951 -7.99902q40.9971 -20.999 48.9971 -51.4971zM686.021 946.005 q0 -52.9971 -30.998 -78.4951q-30.998 -25.499 -71.9951 -25.499h-40.998q-38.9971 0 -69.4961 25.499q-30.498 25.498 -30.498 78.4951q0 48.9971 30.498 73.4951q30.499 24.499 69.4961 24.499h40.998q40.9971 0 71.9951 -24.499q30.998 -24.498 30.998 -73.4951z" />
<glyph unicode="&#xc0;" horiz-adv-x="1212" d="M76 111l401 1134q10 35 46 60.5t87 25.5q49 0 86 -25.5t47 -60.5l394 -1132q3 -11 3 -22q0 -25 -16 -51q-23 -38 -77 -52q-19 -5 -37 -5q-29 0 -55 13q-40 20 -50 55l-74 238h-446l-76 -240q-12 -35 -52 -55q-25 -13 -53 -13q-17 0 -36 5q-55 14 -79 52q-16 26 -16 51 q0 11 3 22zM449 489h319l-158 508zM215 1644q-8 41 9.5 78t52 57.5t77.5 1.5l289 -153q35 -18 44 -49t-5 -64q-16 -33 -50 -44t-56 -1l-310 115q-43 18 -51 59z" />
<glyph unicode="&#xc1;" horiz-adv-x="1212" d="M76 111l401 1134q10 35 46 60.5t87 25.5q49 0 86 -25.5t47 -60.5l394 -1132q3 -11 3 -22q0 -25 -16 -51q-23 -38 -77 -52q-19 -5 -37 -5q-29 0 -55 13q-40 20 -50 55l-74 238h-446l-76 -240q-12 -35 -52 -55q-25 -13 -53 -13q-17 0 -36 5q-55 14 -79 52q-16 26 -16 51 q0 11 3 22zM449 489h319l-158 508zM517.5 1592q11.5 32 33.5 42l289 154q43 18 80 -3.5t54.5 -58.5t10 -78t-50.5 -59l-307 -115q-25 -10 -56.5 5.5t-47.5 47.5q-17 33 -5.5 65z" />
<glyph unicode="&#xc2;" horiz-adv-x="1212" d="M76 111l401 1134q10 35 46 60.5t87 25.5q49 0 86 -25.5t47 -60.5l394 -1132q3 -11 3 -22q0 -25 -16 -51q-23 -38 -77 -52q-19 -5 -37 -5q-29 0 -55 13q-40 20 -50 55l-74 238h-446l-76 -240q-12 -35 -52 -55q-25 -13 -53 -13q-17 0 -36 5q-55 14 -79 52q-16 26 -16 51 q0 11 3 22zM449 489h319l-158 508zM275 1536.5q-1 29.5 24 54.5l268 180q25 12 44.5 14.5t45.5 -8.5l252 -178q31 -25 33 -56.5t-15.5 -56t-47 -34.5t-60.5 8l-203 143l-227 -151q-29 -10 -55.5 0t-42 32.5t-16.5 52z" />
<glyph unicode="&#xc3;" horiz-adv-x="1212" d="M76 111l401 1134q10 35 46 60.5t87 25.5q49 0 86 -25.5t47 -60.5l394 -1132q3 -11 3 -22q0 -25 -16 -51q-23 -38 -77 -52q-19 -5 -37 -5q-29 0 -55 13q-40 20 -50 55l-74 238h-446l-76 -240q-12 -35 -52 -55q-25 -13 -53 -13q-17 0 -36 5q-55 14 -79 52q-16 26 -16 51 q0 11 3 22zM449 489h319l-158 508zM188 1536q0 53 21.5 94t58.5 69.5t85 43t99 14.5q59 0 105.5 -22.5t86.5 -48.5l77 -48q37 -23 79 -22q43 0 60.5 18.5t29 40t26 40t54.5 20.5q39 0 65 -25t34 -59q6 -49 -14.5 -89t-56.5 -70t-83 -46.5t-94 -16.5q-59 0 -103 20.5t-83 44 t-78 44t-88 20.5q-55 0 -77 -18t-34 -42t-25.5 -42t-50.5 -18q-45 0 -69.5 28.5t-24.5 69.5z" />
<glyph unicode="&#xc4;" horiz-adv-x="1212" d="M76 111l401 1134q10 35 46 60.5t87 25.5q49 0 86 -25.5t47 -60.5l394 -1132q3 -11 3 -22q0 -25 -16 -51q-23 -38 -77 -52q-19 -5 -37 -5q-29 0 -55 13q-40 20 -50 55l-74 238h-446l-76 -240q-12 -35 -52 -55q-25 -13 -53 -13q-17 0 -36 5q-55 14 -79 52q-16 26 -16 51 q0 11 3 22zM449 489h319l-158 508zM252 1540v51q0 39 35.5 69.5t97.5 30.5q55 0 91 -30.5t36 -69.5v-51q0 -39 -36 -69.5t-91 -30.5q-61 0 -97 30.5t-36 69.5zM705 1540v51q0 39 35.5 69.5t97.5 30.5q55 0 91 -30.5t36 -69.5v-51q0 -39 -36 -69.5t-91 -30.5q-61 0 -97 30.5 t-36 69.5z" />
<glyph unicode="&#xc5;" horiz-adv-x="1212" d="M76 111l401 1134q10 35 46 60.5t87 25.5q49 0 86 -25.5t47 -60.5l394 -1132q3 -11 3 -22q0 -25 -16 -51q-23 -38 -77 -52q-19 -5 -37 -5q-29 0 -55 13q-40 20 -50 55l-74 238h-446l-76 -240q-12 -35 -52 -55q-25 -13 -53 -13q-17 0 -36 5q-55 14 -79 52q-16 26 -16 51 q0 11 3 22zM449 489h319l-158 508zM391 1646q0 43 17.5 81t46 66t68.5 44t85 16q43 0 82 -16t67.5 -44t46 -66t17.5 -81q0 -41 -17.5 -77.5t-46 -64.5t-67.5 -44t-82 -16q-45 0 -85 16t-68.5 44t-46 64.5t-17.5 77.5zM518 1646q0 -35 26.5 -58t63.5 -23t61.5 23.5t24.5 57.5 q0 35 -24.5 60.5t-61.5 25.5t-63.5 -25.5t-26.5 -60.5z" />
<glyph unicode="&#xc7;" horiz-adv-x="1021" d="M129 477v357q0 100 30.5 191t92 158.5t152 107.5t206.5 40q80 0 147.5 -18.5t118 -49t78 -69.5t27.5 -82q0 -41 -24.5 -63.5t-57.5 -22.5q-35 0 -61.5 9t-61.5 32q-33 20 -70.5 34.5t-97.5 14.5q-98 0 -168.5 -65.5t-70.5 -202.5v-387q0 -137 70.5 -201.5t168.5 -64.5 q59 0 95 9t69 27l39 23.5t29.5 14.5t28 7.5t32.5 2.5q41 0 60.5 -24t19.5 -58q0 -74 -79 -134.5t-206 -76.5q18 -35 29.5 -73t7.5 -79q-4 -57 -42 -98t-92 -60.5t-118.5 -14.5t-122.5 40q-29 18 -36 47t3.5 52.5t35 34.5t59.5 -3q27 -12 52.5 -19.5t47 -6.5t35.5 12.5 t20 34.5q8 29 3 59.5t-27 71.5q-102 8 -181 51t-132.5 109.5t-81 151.5t-27.5 181z" />
<glyph unicode="&#xc8;" horiz-adv-x="1064" d="M154 96v1118q0 37 33.5 67t88.5 30h576q57 0 87 -30t30 -81q0 -47 -30 -76.5t-87 -29.5h-459v-322h307q59 0 89 -29.5t30 -80.5q0 -47 -29.5 -77t-89.5 -30h-307v-338h459q57 0 87 -29.5t30 -81.5q0 -47 -30 -76.5t-87 -29.5h-576q-55 0 -88.5 29.5t-33.5 66.5zM170 1626 q-8 41 9.5 78t52 57.5t77.5 1.5l289 -153q35 -18 44 -49t-5 -64q-16 -33 -50 -44t-56 -1l-310 115q-43 18 -51 59z" />
<glyph unicode="&#xc9;" horiz-adv-x="1064" d="M154 96v1118q0 37 33.5 67t88.5 30h576q57 0 87 -30t30 -81q0 -47 -30 -76.5t-87 -29.5h-459v-322h307q59 0 89 -29.5t30 -80.5q0 -47 -29.5 -77t-89.5 -30h-307v-338h459q57 0 87 -29.5t30 -81.5q0 -47 -30 -76.5t-87 -29.5h-576q-55 0 -88.5 29.5t-33.5 66.5z M471.5 1574q11.5 32 33.5 42l289 154q43 18 80 -3.5t54.5 -58.5t10 -78t-50.5 -59l-307 -115q-25 -10 -56.5 5.5t-47.5 47.5q-17 33 -5.5 65z" />
<glyph unicode="&#xca;" horiz-adv-x="1064" d="M154 96v1118q0 37 33.5 67t88.5 30h576q57 0 87 -30t30 -81q0 -47 -30 -76.5t-87 -29.5h-459v-322h307q59 0 89 -29.5t30 -80.5q0 -47 -29.5 -77t-89.5 -30h-307v-338h459q57 0 87 -29.5t30 -81.5q0 -47 -30 -76.5t-87 -29.5h-576q-55 0 -88.5 29.5t-33.5 66.5z M230 1518.5q-1 29.5 24 54.5l268 180q25 12 44.5 14.5t45.5 -8.5l252 -178q31 -25 33 -56.5t-15.5 -56t-47 -34.5t-60.5 8l-203 143l-227 -151q-29 -10 -55.5 0t-42 32.5t-16.5 52z" />
<glyph unicode="&#xcb;" horiz-adv-x="1064" d="M154 96v1118q0 37 33.5 67t88.5 30h576q57 0 87 -30t30 -81q0 -47 -30 -76.5t-87 -29.5h-459v-322h307q59 0 89 -29.5t30 -80.5q0 -47 -29.5 -77t-89.5 -30h-307v-338h459q57 0 87 -29.5t30 -81.5q0 -47 -30 -76.5t-87 -29.5h-576q-55 0 -88.5 29.5t-33.5 66.5zM207 1522 v51q0 39 35.5 69.5t97.5 30.5q55 0 91 -30.5t36 -69.5v-51q0 -39 -36 -69.5t-91 -30.5q-61 0 -97 30.5t-36 69.5zM660 1522v51q0 39 35.5 69.5t97.5 30.5q55 0 91 -30.5t36 -69.5v-51q0 -39 -36 -69.5t-91 -30.5q-61 0 -97 30.5t-36 69.5z" />
<glyph unicode="&#xcc;" horiz-adv-x="546" d="M154 78v1157q0 37 32.5 66.5t89.5 29.5q51 0 84 -29.5t33 -66.5v-1157q0 -37 -32.5 -66.5t-84.5 -29.5q-57 0 -89.5 29.5t-32.5 66.5zM-117 1646q-8 41 9.5 78t52 57.5t77.5 1.5l289 -153q35 -18 44 -49t-5 -64q-16 -33 -50 -44t-56 -1l-310 115q-43 18 -51 59z" />
<glyph unicode="&#xcd;" horiz-adv-x="546" d="M154 78v1157q0 37 32.5 66.5t89.5 29.5q51 0 84 -29.5t33 -66.5v-1157q0 -37 -32.5 -66.5t-84.5 -29.5q-57 0 -89.5 29.5t-32.5 66.5zM183.5 1594q11.5 32 33.5 42l289 154q43 18 80 -3.5t54.5 -58.5t10 -78t-50.5 -59l-307 -115q-25 -10 -56.5 5.5t-47.5 47.5 q-17 33 -5.5 65z" />
<glyph unicode="&#xce;" horiz-adv-x="546" d="M154 78v1157q0 37 32.5 66.5t89.5 29.5q51 0 84 -29.5t33 -66.5v-1157q0 -37 -32.5 -66.5t-84.5 -29.5q-57 0 -89.5 29.5t-32.5 66.5zM-59 1538.5q-1 29.5 24 54.5l268 180q25 12 44.5 14.5t45.5 -8.5l252 -178q31 -25 33 -56.5t-15.5 -56t-47 -34.5t-60.5 8l-203 143 l-227 -151q-29 -10 -55.5 0t-42 32.5t-16.5 52z" />
<glyph unicode="&#xcf;" horiz-adv-x="546" d="M154 78v1157q0 37 32.5 66.5t89.5 29.5q51 0 84 -29.5t33 -66.5v-1157q0 -37 -32.5 -66.5t-84.5 -29.5q-57 0 -89.5 29.5t-32.5 66.5zM-80 1542v51q0 39 35.5 69.5t97.5 30.5q55 0 91 -30.5t36 -69.5v-51q0 -39 -36 -69.5t-91 -30.5q-61 0 -97 30.5t-36 69.5zM371 1542 v51q0 39 35.5 69.5t97.5 30.5q55 0 91 -30.5t36 -69.5v-51q0 -39 -36 -69.5t-91 -30.5q-61 0 -97 30.5t-36 69.5z" />
<glyph unicode="&#xd0;" horiz-adv-x="1234" d="M31 643q0 51 29.5 81t66.5 30h47v460q0 37 33 67t90 30h264q139 0 241.5 -44t169 -119t98.5 -176.5t32 -215.5v-228q0 -111 -32 -207t-98.5 -167.5t-169 -112.5t-241.5 -41h-264q-57 0 -90 29.5t-33 66.5v441h-47q-37 0 -66.5 29.5t-29.5 76.5zM414 217h147q141 0 221 74 t80 215v270q0 150 -80 234t-221 84h-147v-340h159q57 0 87 -30t30 -81q0 -47 -29.5 -76.5t-87.5 -29.5h-159v-320z" />
<glyph unicode="&#xd1;" horiz-adv-x="1333" d="M154 76v1159q0 37 33.5 66.5t88.5 29.5q45 0 76 -23.5t39 -54.5l551 -804v786q0 37 33 66.5t90 29.5q51 0 83 -29.5t32 -66.5v-1159q0 -37 -32 -66.5t-83 -29.5q-45 0 -74.5 17t-42.5 46l-6 10l-549 797v-774q0 -37 -31.5 -66.5t-85.5 -29.5q-55 0 -88.5 29.5t-33.5 66.5 zM207 1518q0 53 21.5 94t58.5 69.5t85 43t99 14.5q59 0 105.5 -22.5t86.5 -48.5l77 -48q37 -23 79 -22q43 0 60.5 18.5t29 40t26 40t54.5 20.5q39 0 65 -25t34 -59q6 -49 -14.5 -89t-56.5 -70t-83 -46.5t-94 -16.5q-59 0 -103 20.5t-83 44t-78 44t-88 20.5q-55 0 -77 -18 t-34 -42t-25.5 -42t-50.5 -18q-45 0 -69.5 28.5t-24.5 69.5z" />
<glyph unicode="&#xd2;" horiz-adv-x="1302" d="M133 512v287q0 113 31 210t94.5 168.5t160.5 112.5t230 41q135 0 232.5 -41t162 -112.5t95 -169t30.5 -209.5v-287q0 -113 -30.5 -210t-95 -169t-162 -112.5t-232.5 -40.5q-133 0 -230 40.5t-160.5 112.5t-94.5 169t-31 210zM369 510q0 -168 75.5 -238.5t204.5 -70.5 q133 0 207 70.5t74 238.5v289q0 168 -74 238.5t-207 70.5q-129 0 -204.5 -70.5t-75.5 -238.5v-289zM258 1644q-8 41 9.5 78t52 57.5t77.5 1.5l289 -153q35 -18 44 -49t-5 -64q-16 -33 -50 -44t-56 -1l-310 115q-43 18 -51 59z" />
<glyph unicode="&#xd3;" horiz-adv-x="1302" d="M133 512v287q0 113 31 210t94.5 168.5t160.5 112.5t230 41q135 0 232.5 -41t162 -112.5t95 -169t30.5 -209.5v-287q0 -113 -30.5 -210t-95 -169t-162 -112.5t-232.5 -40.5q-133 0 -230 40.5t-160.5 112.5t-94.5 169t-31 210zM369 510q0 -168 75.5 -238.5t204.5 -70.5 q133 0 207 70.5t74 238.5v289q0 168 -74 238.5t-207 70.5q-129 0 -204.5 -70.5t-75.5 -238.5v-289zM560.5 1592q11.5 32 33.5 42l289 154q43 18 80 -3.5t54.5 -58.5t10 -78t-50.5 -59l-307 -115q-25 -10 -56.5 5.5t-47.5 47.5q-17 33 -5.5 65z" />
<glyph unicode="&#xd4;" horiz-adv-x="1302" d="M133 512v287q0 113 31 210t94.5 168.5t160.5 112.5t230 41q135 0 232.5 -41t162 -112.5t95 -169t30.5 -209.5v-287q0 -113 -30.5 -210t-95 -169t-162 -112.5t-232.5 -40.5q-133 0 -230 40.5t-160.5 112.5t-94.5 169t-31 210zM369 510q0 -168 75.5 -238.5t204.5 -70.5 q133 0 207 70.5t74 238.5v289q0 168 -74 238.5t-207 70.5q-129 0 -204.5 -70.5t-75.5 -238.5v-289zM316 1536.5q-1 29.5 24 54.5l268 180q25 12 44.5 14.5t45.5 -8.5l252 -178q31 -25 33 -56.5t-15.5 -56t-47 -34.5t-60.5 8l-203 143l-227 -151q-29 -10 -55.5 0t-42 32.5 t-16.5 52z" />
<glyph unicode="&#xd5;" horiz-adv-x="1302" d="M133 512v287q0 113 31 210t94.5 168.5t160.5 112.5t230 41q135 0 232.5 -41t162 -112.5t95 -169t30.5 -209.5v-287q0 -113 -30.5 -210t-95 -169t-162 -112.5t-232.5 -40.5q-133 0 -230 40.5t-160.5 112.5t-94.5 169t-31 210zM369 510q0 -168 75.5 -238.5t204.5 -70.5 q133 0 207 70.5t74 238.5v289q0 168 -74 238.5t-207 70.5q-129 0 -204.5 -70.5t-75.5 -238.5v-289zM231 1536q0 53 21.5 94t58.5 69.5t85 43t99 14.5q59 0 105.5 -22.5t86.5 -48.5l77 -48q37 -23 79 -22q43 0 60.5 18.5t29 40t26 40t54.5 20.5q39 0 65 -25t34 -59 q6 -49 -14.5 -89t-56.5 -70t-83 -46.5t-94 -16.5q-59 0 -103 20.5t-83 44t-78 44t-88 20.5q-55 0 -77 -18t-34 -42t-25.5 -42t-50.5 -18q-45 0 -69.5 28.5t-24.5 69.5z" />
<glyph unicode="&#xd6;" horiz-adv-x="1302" d="M133 512v287q0 113 31 210t94.5 168.5t160.5 112.5t230 41q135 0 232.5 -41t162 -112.5t95 -169t30.5 -209.5v-287q0 -113 -30.5 -210t-95 -169t-162 -112.5t-232.5 -40.5q-133 0 -230 40.5t-160.5 112.5t-94.5 169t-31 210zM369 510q0 -168 75.5 -238.5t204.5 -70.5 q133 0 207 70.5t74 238.5v289q0 168 -74 238.5t-207 70.5q-129 0 -204.5 -70.5t-75.5 -238.5v-289zM295 1540v51q0 39 35.5 69.5t97.5 30.5q55 0 91 -30.5t36 -69.5v-51q0 -39 -36 -69.5t-91 -30.5q-61 0 -97 30.5t-36 69.5zM748 1540v51q0 39 35.5 69.5t97.5 30.5 q55 0 91 -30.5t36 -69.5v-51q0 -39 -36 -69.5t-91 -30.5q-61 0 -97 30.5t-36 69.5z" />
<glyph unicode="&#xd8;" horiz-adv-x="1302" d="M106.5 29.5q-6.5 31.5 10.5 56.5l90 117q-39 66 -56.5 143.5t-17.5 165.5v287q0 113 31 210t94.5 168.5t160.5 112.5t230 41q111 0 196 -27.5t146 -78.5l56 71q16 23 48.5 28t65.5 -17q29 -23 34 -53.5t-9 -53.5l-84 -108q68 -127 67 -293v-287q0 -113 -30.5 -210 t-95 -169t-162 -112.5t-232.5 -40.5q-104 0 -186 24.5t-141 71.5l-68 -88q-16 -23 -48 -29t-63 16q-30 23 -36.5 54.5zM369 510q0 -49 6 -88l475 618q-35 35 -86 51.5t-115 16.5q-129 0 -204.5 -70.5t-75.5 -238.5v-289zM461 256q68 -55 188 -55q133 0 207 70.5t74 238.5 v289q0 16 -1 31.5t-3 31.5z" />
<glyph unicode="&#xd9;" horiz-adv-x="1331" d="M150 461v774q0 37 33.5 66.5t88.5 29.5q53 0 85 -29.5t32 -66.5v-772q0 -260 268 -260q266 0 267 260v772q0 37 33.5 66.5t84.5 29.5q55 0 89 -29.5t34 -66.5v-774q0 -96 -28.5 -184.5t-90 -154t-157.5 -104t-232 -38.5q-135 0 -231 38.5t-157.5 104t-90 154t-28.5 184.5 zM266 1650q-8 41 9.5 78t52 57.5t77.5 1.5l289 -153q35 -18 44 -49t-5 -64q-16 -33 -50 -44t-56 -1l-310 115q-43 18 -51 59z" />
<glyph unicode="&#xda;" horiz-adv-x="1331" d="M150 461v774q0 37 33.5 66.5t88.5 29.5q53 0 85 -29.5t32 -66.5v-772q0 -260 268 -260q266 0 267 260v772q0 37 33.5 66.5t84.5 29.5q55 0 89 -29.5t34 -66.5v-774q0 -96 -28.5 -184.5t-90 -154t-157.5 -104t-232 -38.5q-135 0 -231 38.5t-157.5 104t-90 154t-28.5 184.5 zM568.5 1599q11.5 32 33.5 42l289 154q43 18 80 -3.5t54.5 -58.5t10 -78t-50.5 -59l-307 -115q-25 -10 -56.5 5.5t-47.5 47.5q-17 33 -5.5 65z" />
<glyph unicode="&#xdb;" horiz-adv-x="1331" d="M150 461v774q0 37 33.5 66.5t88.5 29.5q53 0 85 -29.5t32 -66.5v-772q0 -260 268 -260q266 0 267 260v772q0 37 33.5 66.5t84.5 29.5q55 0 89 -29.5t34 -66.5v-774q0 -96 -28.5 -184.5t-90 -154t-157.5 -104t-232 -38.5q-135 0 -231 38.5t-157.5 104t-90 154t-28.5 184.5 zM324 1542.5q-1 29.5 24 54.5l268 180q25 12 44.5 14.5t45.5 -8.5l252 -178q31 -25 33 -56.5t-15.5 -56t-47 -34.5t-60.5 8l-203 143l-227 -151q-29 -10 -55.5 0t-42 32.5t-16.5 52z" />
<glyph unicode="&#xdc;" horiz-adv-x="1331" d="M150 461v774q0 37 33.5 66.5t88.5 29.5q53 0 85 -29.5t32 -66.5v-772q0 -260 268 -260q266 0 267 260v772q0 37 33.5 66.5t84.5 29.5q55 0 89 -29.5t34 -66.5v-774q0 -96 -28.5 -184.5t-90 -154t-157.5 -104t-232 -38.5q-135 0 -231 38.5t-157.5 104t-90 154t-28.5 184.5 zM303 1546v51q0 39 35.5 69.5t97.5 30.5q55 0 91 -30.5t36 -69.5v-51q0 -39 -36 -69.5t-91 -30.5q-61 0 -97 30.5t-36 69.5zM756 1546v51q0 39 35.5 69.5t97.5 30.5q55 0 91 -30.5t36 -69.5v-51q0 -39 -36 -69.5t-91 -30.5q-61 0 -97 30.5t-36 69.5z" />
<glyph unicode="&#xdd;" horiz-adv-x="1126" d="M55 1238q10 42 54 69q38 23 74 23q9 0 18 -2q45 -7 67 -36l295 -579l297 579q23 29 68 36l18 2q36 0 74 -23q43 -27 52 -69q3 -13 3 -25q0 -26 -14 -46l-385 -700v-389q0 -37 -32 -66.5t-83 -29.5q-57 0 -90 29.5t-33 66.5v411l-370 678q-15 20 -16 46q0 12 3 25z M474.5 1592q11.5 32 33.5 42l289 154q43 18 80 -3.5t54.5 -58.5t10 -78t-50.5 -59l-307 -115q-25 -10 -56.5 5.5t-47.5 47.5q-17 33 -5.5 65z" />
<glyph unicode="&#xde;" horiz-adv-x="1140" d="M150 86v1128q0 37 33.5 67t88.5 30q53 0 85 -30t32 -67v-170h172q125 0 215 -30.5t148.5 -82.5t86 -123t27.5 -151v-22q0 -70 -25.5 -134.5t-82 -114.5t-147.5 -80t-222 -30h-172v-200q0 -37 -31.5 -66.5t-85.5 -29.5q-55 0 -88.5 34.5t-33.5 71.5zM389 473h172 q127 0 183.5 46t56.5 106v47q0 70 -56.5 119t-183.5 49h-172v-367z" />
<glyph unicode="&#xe0;" d="M125 391v180q0 86 30.5 170t90 152t149.5 109.5t211 41.5q113 0 195 -30.5t134 -85t76.5 -128t24.5 -161.5v-573q0 -37 -32.5 -67t-90.5 -30q-51 0 -82.5 30t-31.5 67v32l-19 6q-18 -27 -39.5 -49t-52.5 -39.5t-73 -26.5t-103 -9q-98 0 -172 35.5t-121 93t-70.5 131 t-23.5 151.5zM371 383q0 -74 55 -127t137 -53q45 0 87 15t75 45t53.5 75t20.5 104v193q0 102 -50.5 144t-142.5 42q-53 0 -96 -19.5t-73.5 -53t-48 -76.5t-17.5 -92v-197zM192 1374q-8 41 9.5 78t52 57.5t77.5 1.5l289 -153q35 -18 44 -49t-5 -64q-16 -33 -50 -44t-56 -1 l-310 115q-43 18 -51 59z" />
<glyph unicode="&#xe1;" d="M125 391v180q0 86 30.5 170t90 152t149.5 109.5t211 41.5q113 0 195 -30.5t134 -85t76.5 -128t24.5 -161.5v-573q0 -37 -32.5 -67t-90.5 -30q-51 0 -82.5 30t-31.5 67v32l-19 6q-18 -27 -39.5 -49t-52.5 -39.5t-73 -26.5t-103 -9q-98 0 -172 35.5t-121 93t-70.5 131 t-23.5 151.5zM371 383q0 -74 55 -127t137 -53q45 0 87 15t75 45t53.5 75t20.5 104v193q0 102 -50.5 144t-142.5 42q-53 0 -96 -19.5t-73.5 -53t-48 -76.5t-17.5 -92v-197zM494.5 1322q11.5 32 33.5 42l289 154q43 18 80 -3.5t54.5 -58.5t10 -78t-50.5 -59l-307 -115 q-25 -10 -56.5 5.5t-47.5 47.5q-17 33 -5.5 65z" />
<glyph unicode="&#xe2;" d="M125 391v180q0 86 30.5 170t90 152t149.5 109.5t211 41.5q113 0 195 -30.5t134 -85t76.5 -128t24.5 -161.5v-573q0 -37 -32.5 -67t-90.5 -30q-51 0 -82.5 30t-31.5 67v32l-19 6q-18 -27 -39.5 -49t-52.5 -39.5t-73 -26.5t-103 -9q-98 0 -172 35.5t-121 93t-70.5 131 t-23.5 151.5zM371 383q0 -74 55 -127t137 -53q45 0 87 15t75 45t53.5 75t20.5 104v193q0 102 -50.5 144t-142.5 42q-53 0 -96 -19.5t-73.5 -53t-48 -76.5t-17.5 -92v-197zM253 1266.5q-1 29.5 24 54.5l268 180q25 12 44.5 14.5t45.5 -8.5l252 -178q31 -25 33 -56.5 t-15.5 -56t-47 -34.5t-60.5 8l-203 143l-227 -151q-29 -10 -55.5 0t-42 32.5t-16.5 52z" />
<glyph unicode="&#xe3;" d="M125 391v180q0 86 30.5 170t90 152t149.5 109.5t211 41.5q113 0 195 -30.5t134 -85t76.5 -128t24.5 -161.5v-573q0 -37 -32.5 -67t-90.5 -30q-51 0 -82.5 30t-31.5 67v32l-19 6q-18 -27 -39.5 -49t-52.5 -39.5t-73 -26.5t-103 -9q-98 0 -172 35.5t-121 93t-70.5 131 t-23.5 151.5zM371 383q0 -74 55 -127t137 -53q45 0 87 15t75 45t53.5 75t20.5 104v193q0 102 -50.5 144t-142.5 42q-53 0 -96 -19.5t-73.5 -53t-48 -76.5t-17.5 -92v-197zM168 1266q0 53 21.5 94t58.5 69.5t85 43t99 14.5q59 0 105.5 -22.5t86.5 -48.5l77 -48q37 -23 79 -22 q43 0 60.5 18.5t29 40t26 40t54.5 20.5q39 0 65 -25t34 -59q6 -49 -14.5 -89t-56.5 -70t-83 -46.5t-94 -16.5q-59 0 -103 20.5t-83 44t-78 44t-88 20.5q-55 0 -77 -18t-34 -42t-25.5 -42t-50.5 -18q-45 0 -69.5 28.5t-24.5 69.5z" />
<glyph unicode="&#xe4;" d="M125 391v180q0 86 30.5 170t90 152t149.5 109.5t211 41.5q113 0 195 -30.5t134 -85t76.5 -128t24.5 -161.5v-573q0 -37 -32.5 -67t-90.5 -30q-51 0 -82.5 30t-31.5 67v32l-19 6q-18 -27 -39.5 -49t-52.5 -39.5t-73 -26.5t-103 -9q-98 0 -172 35.5t-121 93t-70.5 131 t-23.5 151.5zM371 383q0 -74 55 -127t137 -53q45 0 87 15t75 45t53.5 75t20.5 104v193q0 102 -50.5 144t-142.5 42q-53 0 -96 -19.5t-73.5 -53t-48 -76.5t-17.5 -92v-197zM230 1270v51q0 39 35.5 69.5t97.5 30.5q55 0 91 -30.5t36 -69.5v-51q0 -39 -36 -69.5t-91 -30.5 q-61 0 -97 30.5t-36 69.5zM682 1270v51q0 39 35.5 69.5t97.5 30.5q55 0 91 -30.5t36 -69.5v-51q0 -39 -36 -69.5t-91 -30.5q-61 0 -97 30.5t-36 69.5z" />
<glyph unicode="&#xe5;" d="M125 391v180q0 86 30.5 170t90 152t149.5 109.5t211 41.5q113 0 195 -30.5t134 -85t76.5 -128t24.5 -161.5v-573q0 -37 -32.5 -67t-90.5 -30q-51 0 -82.5 30t-31.5 67v32l-19 6q-18 -27 -39.5 -49t-52.5 -39.5t-73 -26.5t-103 -9q-98 0 -172 35.5t-121 93t-70.5 131 t-23.5 151.5zM371 383q0 -74 55 -127t137 -53q45 0 87 15t75 45t53.5 75t20.5 104v193q0 102 -50.5 144t-142.5 42q-53 0 -96 -19.5t-73.5 -53t-48 -76.5t-17.5 -92v-197zM369 1376q0 43 17.5 81t46 66t68.5 44t85 16q43 0 82 -16t67.5 -44t46 -66t17.5 -81 q0 -41 -17.5 -77.5t-46 -64.5t-67.5 -44t-82 -16q-45 0 -85 16t-68.5 44t-46 64.5t-17.5 77.5zM496 1376q0 -35 26.5 -58t63.5 -23t61.5 23.5t24.5 57.5q0 35 -24.5 60.5t-61.5 25.5t-63.5 -25.5t-26.5 -60.5z" />
<glyph unicode="&#xe7;" horiz-adv-x="962" d="M113 426v172q0 92 25.5 173t80.5 142.5t141 96t207 34.5q104 0 180 -27.5t123 -74.5q27 -27 29 -66.5t-17.5 -70.5t-59.5 -43t-97 16q-31 16 -67.5 29.5t-90.5 13.5q-106 0 -159.5 -63.5t-53.5 -171.5v-148q0 -109 53.5 -172t159.5 -63q53 0 96.5 11t67.5 26 q43 23 81 15.5t60.5 -33t26.5 -61.5t-22 -73q-29 -41 -85.5 -65.5t-125.5 -34.5q18 -35 29.5 -74t6.5 -80q-4 -57 -41.5 -98t-92 -60.5t-119 -14.5t-121.5 40q-29 18 -36 47t3 52.5t34.5 34.5t59.5 -3q27 -12 52.5 -19.5t47 -6.5t36 12.5t20.5 34.5q8 29 3 58.5t-26 70.5 q-109 6 -186.5 43.5t-126.5 97t-72.5 137.5t-23.5 166z" />
<glyph unicode="&#xe8;" horiz-adv-x="1099" d="M109 389v217q0 90 33.5 170t93 139.5t141.5 94t180 34.5q117 0 199 -37.5t134 -98t76.5 -134.5t24.5 -145q0 -96 -36.5 -135t-123.5 -39h-485v-54q0 -98 60.5 -157.5t171.5 -59.5q55 0 101 7.5t73 19.5l55 29q27 14 49 14q41 0 63.5 -24.5t24.5 -63.5q0 -33 -28.5 -65.5 t-78 -59.5t-116 -44t-141.5 -17q-104 0 -190.5 32.5t-149 88t-97 130t-34.5 158.5zM346 633h418v31q0 84 -58.5 133t-150.5 49t-146.5 -58.5t-62.5 -154.5zM149 1364q-8 41 9.5 78t52 57.5t77.5 1.5l289 -153q35 -18 44 -49t-5 -64q-16 -33 -50 -44t-56 -1l-310 115 q-43 18 -51 59z" />
<glyph unicode="&#xe9;" horiz-adv-x="1099" d="M109 389v217q0 90 33.5 170t93 139.5t141.5 94t180 34.5q117 0 199 -37.5t134 -98t76.5 -134.5t24.5 -145q0 -96 -36.5 -135t-123.5 -39h-485v-54q0 -98 60.5 -157.5t171.5 -59.5q55 0 101 7.5t73 19.5l55 29q27 14 49 14q41 0 63.5 -24.5t24.5 -63.5q0 -33 -28.5 -65.5 t-78 -59.5t-116 -44t-141.5 -17q-104 0 -190.5 32.5t-149 88t-97 130t-34.5 158.5zM346 633h418v31q0 84 -58.5 133t-150.5 49t-146.5 -58.5t-62.5 -154.5zM451.5 1312q11.5 32 33.5 42l289 154q43 18 80 -3.5t54.5 -58.5t10 -78t-50.5 -59l-307 -115q-25 -10 -56.5 5.5 t-47.5 47.5q-17 33 -5.5 65z" />
<glyph unicode="&#xea;" horiz-adv-x="1099" d="M109 389v217q0 90 33.5 170t93 139.5t141.5 94t180 34.5q117 0 199 -37.5t134 -98t76.5 -134.5t24.5 -145q0 -96 -36.5 -135t-123.5 -39h-485v-54q0 -98 60.5 -157.5t171.5 -59.5q55 0 101 7.5t73 19.5l55 29q27 14 49 14q41 0 63.5 -24.5t24.5 -63.5q0 -33 -28.5 -65.5 t-78 -59.5t-116 -44t-141.5 -17q-104 0 -190.5 32.5t-149 88t-97 130t-34.5 158.5zM346 633h418v31q0 84 -58.5 133t-150.5 49t-146.5 -58.5t-62.5 -154.5zM210 1256.5q-1 29.5 24 54.5l268 180q25 12 44.5 14.5t45.5 -8.5l252 -178q31 -25 33 -56.5t-15.5 -56t-47 -34.5 t-60.5 8l-203 143l-227 -151q-29 -10 -55.5 0t-42 32.5t-16.5 52z" />
<glyph unicode="&#xeb;" horiz-adv-x="1099" d="M109 389v217q0 90 33.5 170t93 139.5t141.5 94t180 34.5q117 0 199 -37.5t134 -98t76.5 -134.5t24.5 -145q0 -96 -36.5 -135t-123.5 -39h-485v-54q0 -98 60.5 -157.5t171.5 -59.5q55 0 101 7.5t73 19.5l55 29q27 14 49 14q41 0 63.5 -24.5t24.5 -63.5q0 -33 -28.5 -65.5 t-78 -59.5t-116 -44t-141.5 -17q-104 0 -190.5 32.5t-149 88t-97 130t-34.5 158.5zM346 633h418v31q0 84 -58.5 133t-150.5 49t-146.5 -58.5t-62.5 -154.5zM187 1260v51q0 39 35.5 69.5t97.5 30.5q55 0 91 -30.5t36 -69.5v-51q0 -39 -36 -69.5t-91 -30.5q-61 0 -97 30.5 t-36 69.5zM639 1260v51q0 39 35.5 69.5t97.5 30.5q55 0 91 -30.5t36 -69.5v-51q0 -39 -36 -69.5t-91 -30.5q-61 0 -97 30.5t-36 69.5z" />
<glyph unicode="&#xec;" horiz-adv-x="540" d="M150 965q0 37 33.5 66.5t88.5 29.5q53 0 85 -30t32 -66v-887q0 -37 -31.5 -66.5t-85.5 -29.5q-55 0 -88.5 29.5t-33.5 66.5v887zM-121 1384q-8 41 9.5 78t52 57.5t77.5 1.5l289 -153q35 -18 44 -49t-5 -64q-16 -33 -50 -44t-56 -1l-310 115q-43 18 -51 59z" />
<glyph unicode="&#xed;" horiz-adv-x="540" d="M150 965q0 37 33.5 66.5t88.5 29.5q53 0 85 -30t32 -66v-887q0 -37 -31.5 -66.5t-85.5 -29.5q-55 0 -88.5 29.5t-33.5 66.5v887zM179.5 1332q11.5 32 33.5 42l289 154q43 18 80 -3.5t54.5 -58.5t10 -78t-50.5 -59l-307 -115q-25 -10 -56.5 5.5t-47.5 47.5q-17 33 -5.5 65 z" />
<glyph unicode="&#xee;" horiz-adv-x="540" d="M150 965q0 37 33.5 66.5t88.5 29.5q53 0 85 -30t32 -66v-887q0 -37 -31.5 -66.5t-85.5 -29.5q-55 0 -88.5 29.5t-33.5 66.5v887zM-63 1276.5q-1 29.5 24 54.5l268 180q25 12 44.5 14.5t45.5 -8.5l252 -178q31 -25 33 -56.5t-15.5 -56t-47 -34.5t-60.5 8l-203 143 l-227 -151q-29 -10 -55.5 0t-42 32.5t-16.5 52z" />
<glyph unicode="&#xef;" horiz-adv-x="540" d="M150 965q0 37 33.5 66.5t88.5 29.5q53 0 85 -30t32 -66v-887q0 -37 -31.5 -66.5t-85.5 -29.5q-55 0 -88.5 29.5t-33.5 66.5v887zM-84 1280v51q0 39 35.5 69.5t97.5 30.5q55 0 91 -30.5t36 -69.5v-51q0 -39 -36 -69.5t-91 -30.5q-61 0 -97 30.5t-36 69.5zM367 1280v51 q0 39 35.5 69.5t97.5 30.5q55 0 91 -30.5t36 -69.5v-51q0 -39 -36 -69.5t-91 -30.5q-61 0 -97 30.5t-36 69.5z" />
<glyph unicode="&#xf0;" horiz-adv-x="1146" d="M106 420v39q0 88 26 163.5t75 131t120.5 88t161.5 32.5q102 0 175 -30.5t122 -77.5l15 6v23q0 86 -46 157.5t-116 124.5l-137 -112q-23 -16 -52.5 -14.5t-52.5 28.5q-23 29 -19.5 58.5t23.5 49.5l84 68q-29 10 -55.5 16.5t-52.5 10.5q-47 6 -84 31.5t-37 76.5 q0 27 11.5 46.5t28.5 31.5t37.5 18.5t39.5 6.5q76 0 154.5 -20.5t152.5 -57.5l100 82q68 51 115 -11q23 -27 20.5 -56.5t-34.5 -53.5l-64 -51q98 -82 159.5 -194.5t61.5 -250.5v-254q0 -109 -27.5 -207t-86 -171.5t-148.5 -116.5t-217 -43q-119 -4 -205 37t-141 104.5 t-81 141t-26 149.5zM348 412q0 -41 13.5 -79t41 -66.5t66.5 -46t92 -17.5q104 0 164.5 59.5t73.5 188.5q-2 53 -22.5 95t-53.5 70.5t-75 44t-87 15.5q-104 0 -158.5 -58.5t-54.5 -150.5v-55z" />
<glyph unicode="&#xf1;" horiz-adv-x="1196" d="M143 76v518q0 96 29 179t86 143.5t142 94t198 33.5t198 -30.5t142 -87t86 -136t29 -176.5v-538q0 -37 -35 -66.5t-88 -29.5t-86 29.5t-33 66.5v526q0 113 -60.5 166t-152.5 53t-153.5 -53t-61.5 -166v-526q0 -37 -32 -66.5t-85 -29.5q-55 0 -89 29.5t-34 66.5zM180 1272 q0 53 21.5 94t58.5 69.5t85 43t99 14.5q59 0 105.5 -22.5t86.5 -48.5l77 -48q37 -23 79 -22q43 0 60.5 18.5t29 40t26 40t54.5 20.5q39 0 65 -25t34 -59q6 -49 -14.5 -89t-56.5 -70t-83 -46.5t-94 -16.5q-59 0 -103 20.5t-83 44t-78 44t-88 20.5q-55 0 -77 -18t-34 -42 t-25.5 -42t-50.5 -18q-45 0 -69.5 28.5t-24.5 69.5z" />
<glyph unicode="&#xf2;" horiz-adv-x="1155" d="M113 434v141q0 96 27.5 181.5t84 150t144.5 101t209 36.5q119 0 206.5 -36.5t145 -101t85 -149.5t27.5 -182v-141q0 -92 -27.5 -174t-85 -143.5t-145.5 -97t-206 -35.5q-121 0 -209 35.5t-144.5 97t-84 143.5t-27.5 174zM354 432q0 -113 59.5 -174t164.5 -61 q104 0 163.5 61t59.5 174v148q0 123 -59.5 186t-163.5 63t-164 -63.5t-60 -185.5v-148zM186 1364q-8 41 9.5 78t52 57.5t77.5 1.5l289 -153q35 -18 44 -49t-5 -64q-16 -33 -50 -44t-56 -1l-310 115q-43 18 -51 59z" />
<glyph unicode="&#xf3;" horiz-adv-x="1155" d="M113 434v141q0 96 27.5 181.5t84 150t144.5 101t209 36.5q119 0 206.5 -36.5t145 -101t85 -149.5t27.5 -182v-141q0 -92 -27.5 -174t-85 -143.5t-145.5 -97t-206 -35.5q-121 0 -209 35.5t-144.5 97t-84 143.5t-27.5 174zM354 432q0 -113 59.5 -174t164.5 -61 q104 0 163.5 61t59.5 174v148q0 123 -59.5 186t-163.5 63t-164 -63.5t-60 -185.5v-148zM488.5 1312q11.5 32 33.5 42l289 154q43 18 80 -3.5t54.5 -58.5t10 -78t-50.5 -59l-307 -115q-25 -10 -56.5 5.5t-47.5 47.5q-17 33 -5.5 65z" />
<glyph unicode="&#xf4;" horiz-adv-x="1155" d="M113 434v141q0 96 27.5 181.5t84 150t144.5 101t209 36.5q119 0 206.5 -36.5t145 -101t85 -149.5t27.5 -182v-141q0 -92 -27.5 -174t-85 -143.5t-145.5 -97t-206 -35.5q-121 0 -209 35.5t-144.5 97t-84 143.5t-27.5 174zM354 432q0 -113 59.5 -174t164.5 -61 q104 0 163.5 61t59.5 174v148q0 123 -59.5 186t-163.5 63t-164 -63.5t-60 -185.5v-148zM246 1256.5q-1 29.5 24 54.5l268 180q25 12 44.5 14.5t45.5 -8.5l252 -178q31 -25 33 -56.5t-15.5 -56t-47 -34.5t-60.5 8l-203 143l-227 -151q-29 -10 -55.5 0t-42 32.5t-16.5 52z" />
<glyph unicode="&#xf5;" horiz-adv-x="1155" d="M113 434v141q0 96 27.5 181.5t84 150t144.5 101t209 36.5q119 0 206.5 -36.5t145 -101t85 -149.5t27.5 -182v-141q0 -92 -27.5 -174t-85 -143.5t-145.5 -97t-206 -35.5q-121 0 -209 35.5t-144.5 97t-84 143.5t-27.5 174zM354 432q0 -113 59.5 -174t164.5 -61 q104 0 163.5 61t59.5 174v148q0 123 -59.5 186t-163.5 63t-164 -63.5t-60 -185.5v-148zM162 1256q0 53 21.5 94t58.5 69.5t85 43t99 14.5q59 0 105.5 -22.5t86.5 -48.5l77 -48q37 -23 79 -22q43 0 60.5 18.5t29 40t26 40t54.5 20.5q39 0 65 -25t34 -59q6 -49 -14.5 -89 t-56.5 -70t-83 -46.5t-94 -16.5q-59 0 -103 20.5t-83 44t-78 44t-88 20.5q-55 0 -77 -18t-34 -42t-25.5 -42t-50.5 -18q-45 0 -69.5 28.5t-24.5 69.5z" />
<glyph unicode="&#xf6;" horiz-adv-x="1155" d="M113 434v141q0 96 27.5 181.5t84 150t144.5 101t209 36.5q119 0 206.5 -36.5t145 -101t85 -149.5t27.5 -182v-141q0 -92 -27.5 -174t-85 -143.5t-145.5 -97t-206 -35.5q-121 0 -209 35.5t-144.5 97t-84 143.5t-27.5 174zM354 432q0 -113 59.5 -174t164.5 -61 q104 0 163.5 61t59.5 174v148q0 123 -59.5 186t-163.5 63t-164 -63.5t-60 -185.5v-148zM224 1260v51q0 39 35.5 69.5t97.5 30.5q55 0 91 -30.5t36 -69.5v-51q0 -39 -36 -69.5t-91 -30.5q-61 0 -97 30.5t-36 69.5zM676 1260v51q0 39 35.5 69.5t97.5 30.5q55 0 91 -30.5 t36 -69.5v-51q0 -39 -36 -69.5t-91 -30.5q-61 0 -97 30.5t-36 69.5z" />
<glyph unicode="&#xf7;" horiz-adv-x="1073" d="M410 852v51q0 39 35.5 69.5t97.5 30.5q55 0 91 -30.5t36 -69.5v-51q0 -39 -36 -69.5t-91 -30.5q-61 0 -97 30.5t-36 69.5zM410 213v51q0 39 35.5 69.5t97.5 30.5q55 0 91 -30.5t36 -69.5v-51q0 -39 -36 -69.5t-91 -30.5q-61 0 -97 30.5t-36 69.5zM86 561q0 51 31 81 t68 30h686q57 0 87 -30t30 -81q0 -47 -30 -76.5t-87 -29.5h-686q-37 0 -68 29.5t-31 76.5z" />
<glyph unicode="&#xf8;" d="M129 434v141q0 96 27.5 181.5t84 150t144.5 101t209 36.5q86 0 156.5 -20t123.5 -55l50 61q16 23 49 28t65 -18q29 -23 34 -53.5t-9 -52.5l-72 -90q68 -117 68 -269v-141q0 -92 -27.5 -174t-85 -143.5t-145.5 -97t-207 -35.5q-143 0 -246 51l-53 -68q-16 -23 -48 -29 t-63 17t-37 54.5t11 56.5l61 75q-47 59 -68.5 134t-21.5 159zM371 432q0 -23 2 -44t8 -42l350 442q-53 41 -137 41q-104 0 -163.5 -63.5t-59.5 -185.5v-148zM492 215q45 -18 102 -18q104 0 163.5 61t59.5 174v148q0 10 -1 21t-1 22z" />
<glyph unicode="&#xf9;" horiz-adv-x="1196" d="M143 430v516q0 37 34 66.5t89 29.5q53 0 85 -29.5t32 -66.5v-524q0 -113 61.5 -166t153.5 -53t152.5 53t60.5 166v524q0 37 33 66.5t86 29.5t88 -29.5t35 -66.5v-516q0 -96 -29 -179t-86 -143.5t-142 -94t-198 -33.5t-198 33.5t-142 94t-86 143.5t-29 179zM207 1378 q-8 41 9.5 78t52 57.5t77.5 1.5l289 -153q35 -18 44 -49t-5 -64q-16 -33 -50 -44t-56 -1l-310 115q-43 18 -51 59z" />
<glyph unicode="&#xfa;" horiz-adv-x="1196" d="M143 430v516q0 37 34 66.5t89 29.5q53 0 85 -29.5t32 -66.5v-524q0 -113 61.5 -166t153.5 -53t152.5 53t60.5 166v524q0 37 33 66.5t86 29.5t88 -29.5t35 -66.5v-516q0 -96 -29 -179t-86 -143.5t-142 -94t-198 -33.5t-198 33.5t-142 94t-86 143.5t-29 179zM508.5 1326 q11.5 32 33.5 42l289 154q43 18 80 -3.5t54.5 -58.5t10 -78t-50.5 -59l-307 -115q-25 -10 -56.5 5.5t-47.5 47.5q-17 33 -5.5 65z" />
<glyph unicode="&#xfb;" horiz-adv-x="1196" d="M143 430v516q0 37 34 66.5t89 29.5q53 0 85 -29.5t32 -66.5v-524q0 -113 61.5 -166t153.5 -53t152.5 53t60.5 166v524q0 37 33 66.5t86 29.5t88 -29.5t35 -66.5v-516q0 -96 -29 -179t-86 -143.5t-142 -94t-198 -33.5t-198 33.5t-142 94t-86 143.5t-29 179zM267 1270.5 q-1 29.5 24 54.5l268 180q25 12 44.5 14.5t45.5 -8.5l252 -178q31 -25 33 -56.5t-15.5 -56t-47 -34.5t-60.5 8l-203 143l-227 -151q-29 -10 -55.5 0t-42 32.5t-16.5 52z" />
<glyph unicode="&#xfc;" horiz-adv-x="1196" d="M143 430v516q0 37 34 66.5t89 29.5q53 0 85 -29.5t32 -66.5v-524q0 -113 61.5 -166t153.5 -53t152.5 53t60.5 166v524q0 37 33 66.5t86 29.5t88 -29.5t35 -66.5v-516q0 -96 -29 -179t-86 -143.5t-142 -94t-198 -33.5t-198 33.5t-142 94t-86 143.5t-29 179zM244 1274v51 q0 39 35.5 69.5t97.5 30.5q55 0 91 -30.5t36 -69.5v-51q0 -39 -36 -69.5t-91 -30.5q-61 0 -97 30.5t-36 69.5zM697 1274v51q0 39 35.5 69.5t97.5 30.5q55 0 91 -30.5t36 -69.5v-51q0 -39 -36 -69.5t-91 -30.5q-61 0 -97 30.5t-36 69.5z" />
<glyph unicode="&#xfd;" horiz-adv-x="1179" d="M150 412v538q0 37 34.5 67t87.5 30t86 -30t33 -67v-547q0 -96 43 -147t150 -51q74 0 130 35.5t77 111.5v606q-2 31 31.5 60t88.5 29q53 0 86 -30t33 -67v-1022q-2 -98 -35.5 -170.5t-92 -119t-137.5 -69t-167 -22.5q-100 0 -159.5 8.5t-88.5 18.5q-68 43 -67 104 q0 45 28.5 72t85.5 27q23 0 76 -8.5t125 -8.5q96 0 144.5 44t48.5 124v156l-11 4q-45 -53 -103.5 -79.5t-146.5 -26.5q-113 0 -186.5 31.5t-116.5 89t-60 136.5t-17 173zM500.5 1322q11.5 32 33.5 42l289 154q43 18 80 -3.5t54.5 -58.5t10 -78t-50.5 -59l-307 -115 q-25 -10 -56.5 5.5t-47.5 47.5q-17 33 -5.5 65z" />
<glyph unicode="&#xfe;" horiz-adv-x="1191" d="M150 -354v1652q0 37 31.5 67t84.5 30q55 0 89 -30t34 -67v-350l14 -6q43 49 109 75.5t133 26.5q109 0 191 -37.5t136 -102t80.5 -149.5t26.5 -182v-120q0 -96 -24.5 -181.5t-75.5 -150t-131 -102t-193 -37.5q-84 0 -144 29.5t-105 78.5l-17 -4v-440q0 -37 -31.5 -67 t-85.5 -30q-55 0 -88.5 30t-33.5 67zM389 424q0 -113 61.5 -166t153.5 -53q104 0 169 65.5t65 173.5v138q0 109 -64.5 174t-169.5 65q-92 0 -153.5 -43t-61.5 -135v-219z" />
<glyph unicode="&#xff;" horiz-adv-x="1179" d="M150 412v538q0 37 34.5 67t87.5 30t86 -30t33 -67v-547q0 -96 43 -147t150 -51q74 0 130 35.5t77 111.5v606q-2 31 31.5 60t88.5 29q53 0 86 -30t33 -67v-1022q-2 -98 -35.5 -170.5t-92 -119t-137.5 -69t-167 -22.5q-100 0 -159.5 8.5t-88.5 18.5q-68 43 -67 104 q0 45 28.5 72t85.5 27q23 0 76 -8.5t125 -8.5q96 0 144.5 44t48.5 124v156l-11 4q-45 -53 -103.5 -79.5t-146.5 -26.5q-113 0 -186.5 31.5t-116.5 89t-60 136.5t-17 173zM236 1270v51q0 39 35.5 69.5t97.5 30.5q55 0 91 -30.5t36 -69.5v-51q0 -39 -36 -69.5t-91 -30.5 q-61 0 -97 30.5t-36 69.5zM688 1270v51q0 39 35.5 69.5t97.5 30.5q55 0 91 -30.5t36 -69.5v-51q0 -39 -36 -69.5t-91 -30.5q-61 0 -97 30.5t-36 69.5z" />
<glyph unicode="&#x131;" horiz-adv-x="540" d="M150 965q0 37 33.5 66.5t88.5 29.5q53 0 85 -30t32 -66v-887q0 -37 -31.5 -66.5t-85.5 -29.5q-55 0 -88.5 29.5t-33.5 66.5v887z" />
<glyph unicode="&#x152;" horiz-adv-x="2367" d="M1457 96v1118q0 37 33.5 67t88.5 30h576q57 0 87 -30t30 -81q0 -47 -30 -76.5t-87 -29.5h-459v-322h307q59 0 89 -29.5t30 -80.5q0 -47 -29.5 -77t-89.5 -30h-307v-338h459q57 0 87 -29.5t30 -81.5q0 -47 -30 -76.5t-87 -29.5h-576q-55 0 -88.5 29.5t-33.5 66.5zM133 512 v287q0 113 31 210t94.5 168.5t160.5 112.5t230 41q135 0 232.5 -41t162 -112.5t95 -169t30.5 -209.5v-287q0 -113 -30.5 -210t-95 -169t-162 -112.5t-232.5 -40.5q-133 0 -230 40.5t-160.5 112.5t-94.5 169t-31 210zM369 510q0 -168 75.5 -238.5t204.5 -70.5q133 0 207 70.5 t74 238.5v289q0 168 -74 238.5t-207 70.5q-129 0 -204.5 -70.5t-75.5 -238.5v-289z" />
<glyph unicode="&#x153;" horiz-adv-x="2254" d="M1264 389v217q0 90 33.5 170t93 139.5t141.5 94t180 34.5q117 0 199 -37.5t134 -98t76.5 -134.5t24.5 -145q0 -96 -36.5 -135t-123.5 -39h-485v-54q0 -98 60.5 -157.5t171.5 -59.5q55 0 101 7.5t73 19.5l55 29q27 14 49 14q41 0 63.5 -24.5t24.5 -63.5q0 -33 -28.5 -65.5 t-78 -59.5t-116 -44t-141.5 -17q-104 0 -190.5 32.5t-149 88t-97 130t-34.5 158.5zM1501 633h418v31q0 84 -58.5 133t-150.5 49t-146.5 -58.5t-62.5 -154.5zM113 434v141q0 96 27.5 181.5t84 150t144.5 101t209 36.5q119 0 206.5 -36.5t145 -101t85 -149.5t27.5 -182v-141 q0 -92 -27.5 -174t-85 -143.5t-145.5 -97t-206 -35.5q-121 0 -209 35.5t-144.5 97t-84 143.5t-27.5 174zM354 432q0 -113 59.5 -174t164.5 -61q104 0 163.5 61t59.5 174v148q0 123 -59.5 186t-163.5 63t-164 -63.5t-60 -185.5v-148z" />
<glyph unicode="&#x178;" horiz-adv-x="1126" d="M55 1238q10 42 54 69q38 23 74 23q9 0 18 -2q45 -7 67 -36l295 -579l297 579q23 29 68 36l18 2q36 0 74 -23q43 -27 52 -69q3 -13 3 -25q0 -26 -14 -46l-385 -700v-389q0 -37 -32 -66.5t-83 -29.5q-57 0 -90 29.5t-33 66.5v411l-370 678q-15 20 -16 46q0 12 3 25z M209 1540v51q0 39 35.5 69.5t97.5 30.5q55 0 91 -30.5t36 -69.5v-51q0 -39 -36 -69.5t-91 -30.5q-61 0 -97 30.5t-36 69.5zM662 1540v51q0 39 35.5 69.5t97.5 30.5q55 0 91 -30.5t36 -69.5v-51q0 -39 -36 -69.5t-91 -30.5q-61 0 -97 30.5t-36 69.5z" />
<glyph unicode="&#x2c6;" horiz-adv-x="1308" d="M314 1141.5q-1 29.5 24 54.5l268 180q25 12 44.5 14.5t45.5 -8.5l252 -178q31 -25 33 -56.5t-15.5 -56t-47 -34.5t-60.5 8l-203 143l-227 -151q-29 -10 -55.5 0t-42 32.5t-16.5 52z" />
<glyph unicode="&#x2da;" horiz-adv-x="481" d="M43 1300q0 43 17.5 81t46 66t68.5 44t85 16q43 0 82 -16t67.5 -44t46 -66t17.5 -81q0 -41 -17.5 -77.5t-46 -64.5t-67.5 -44t-82 -16q-45 0 -85 16t-68.5 44t-46 64.5t-17.5 77.5zM170 1300q0 -35 26.5 -58t63.5 -23t61.5 23.5t24.5 57.5q0 35 -24.5 60.5t-61.5 25.5 t-63.5 -25.5t-26.5 -60.5z" />
<glyph unicode="&#x2dc;" horiz-adv-x="1208" d="M176 1063q0 53 21.5 94t58.5 69.5t85 43t99 14.5q59 0 105.5 -22.5t86.5 -48.5l77 -48q37 -23 79 -22q43 0 60.5 18.5t29 40t26 40t54.5 20.5q39 0 65 -25t34 -59q6 -49 -14.5 -89t-56.5 -70t-83 -46.5t-94 -16.5q-59 0 -103 20.5t-83 44t-78 44t-88 20.5q-55 0 -77 -18 t-34 -42t-25.5 -42t-50.5 -18q-45 0 -69.5 28.5t-24.5 69.5z" />
<glyph unicode="&#x2000;" horiz-adv-x="925" />
<glyph unicode="&#x2001;" horiz-adv-x="1853" />
<glyph unicode="&#x2002;" horiz-adv-x="925" />
<glyph unicode="&#x2003;" horiz-adv-x="1853" />
<glyph unicode="&#x2004;" horiz-adv-x="616" />
<glyph unicode="&#x2005;" horiz-adv-x="462" />
<glyph unicode="&#x2006;" horiz-adv-x="307" />
<glyph unicode="&#x2007;" horiz-adv-x="307" />
<glyph unicode="&#x2008;" horiz-adv-x="231" />
<glyph unicode="&#x2009;" horiz-adv-x="370" />
<glyph unicode="&#x200a;" horiz-adv-x="102" />
<glyph unicode="&#x2010;" horiz-adv-x="913" d="M172 600q0 51 29.5 81t66.5 30h365q57 0 87 -30t30 -81q0 -47 -30 -76.5t-87 -29.5h-365q-37 0 -66.5 29.5t-29.5 76.5z" />
<glyph unicode="&#x2011;" horiz-adv-x="913" d="M172 600q0 51 29.5 81t66.5 30h365q57 0 87 -30t30 -81q0 -47 -30 -76.5t-87 -29.5h-365q-37 0 -66.5 29.5t-29.5 76.5z" />
<glyph unicode="&#x2012;" horiz-adv-x="913" d="M172 600q0 51 29.5 81t66.5 30h365q57 0 87 -30t30 -81q0 -47 -30 -76.5t-87 -29.5h-365q-37 0 -66.5 29.5t-29.5 76.5z" />
<glyph unicode="&#x2013;" horiz-adv-x="1116" d="M106 600q0 51 31 81t68 30h686q57 0 87 -30t30 -81q0 -47 -30 -76.5t-87 -29.5h-686q-37 0 -68 29.5t-31 76.5z" />
<glyph unicode="&#x2014;" horiz-adv-x="1480" d="M106 600q0 51 31 81t68 30h1050q59 0 89 -30t30 -81q0 -47 -29.5 -76.5t-89.5 -29.5h-1050q-37 0 -68 29.5t-31 76.5z" />
<glyph unicode="&#x2018;" horiz-adv-x="512" d="M63 897q0 143 52.5 250.5t177.5 175.5q53 20 91 5t53.5 -46t4 -68.5t-58.5 -64.5q-55 -35 -69.5 -98.5t-14.5 -135.5q0 -66 -40 -91t-85 -25t-78 19.5t-33 78.5z" />
<glyph unicode="&#x2019;" horiz-adv-x="512" d="M70.5 920.5q11.5 37.5 58.5 64.5q53 35 68.5 98.5t15.5 135.5q0 66 39 91t86 25q45 0 76.5 -19.5t31.5 -78.5q0 -143 -51 -250.5t-176 -175.5q-53 -20 -91 -5t-53.5 46t-4 68.5z" />
<glyph unicode="&#x201a;" horiz-adv-x="512" d="M70.5 -134.5q11.5 37.5 58.5 64.5q53 35 68.5 98.5t15.5 135.5q0 66 39 91t86 25q45 0 76.5 -19.5t31.5 -78.5q0 -143 -51 -250.5t-176 -175.5q-53 -20 -91 -5t-53.5 46t-4 68.5z" />
<glyph unicode="&#x201c;" horiz-adv-x="884" d="M63 897q0 143 52.5 250.5t177.5 175.5q53 20 91 5t53.5 -46t4 -68.5t-58.5 -64.5q-55 -35 -69.5 -98.5t-14.5 -135.5q0 -66 -40 -91t-85 -25t-78 19.5t-33 78.5zM456 897q0 143 52.5 250.5t177.5 175.5q53 20 91 5t53.5 -46t4 -68.5t-58.5 -64.5q-55 -35 -69.5 -98.5 t-14.5 -135.5q0 -66 -40 -91t-85 -25t-78 19.5t-33 78.5z" />
<glyph unicode="&#x201d;" horiz-adv-x="858" d="M70.5 920.5q11.5 37.5 58.5 64.5q53 35 68.5 98.5t15.5 135.5q0 66 39 91t86 25q45 0 76.5 -19.5t31.5 -78.5q0 -143 -51 -250.5t-176 -175.5q-53 -20 -91 -5t-53.5 46t-4 68.5zM437.5 920.5q11.5 37.5 58.5 64.5q53 35 68.5 98.5t15.5 135.5q0 66 39 91t86 25 q45 0 76.5 -19.5t31.5 -78.5q0 -143 -51 -250.5t-176 -175.5q-53 -20 -91 -5t-53.5 46t-4 68.5z" />
<glyph unicode="&#x201e;" horiz-adv-x="858" d="M70.5 -162.5q11.5 37.5 58.5 64.5q53 35 68.5 98.5t15.5 135.5q0 66 39 91t86 25q45 0 76.5 -19.5t31.5 -78.5q0 -143 -51 -250.5t-176 -175.5q-53 -20 -91 -5t-53.5 46t-4 68.5zM416.5 -162.5q11.5 37.5 58.5 64.5q53 35 68.5 98.5t15.5 135.5q0 66 39 91t86 25 q45 0 76.5 -19.5t31.5 -78.5q0 -143 -51 -250.5t-176 -175.5q-53 -20 -91 -5t-53.5 46t-4 68.5z" />
<glyph unicode="&#x2022;" horiz-adv-x="636" d="M111.039 543.429v82.5107q0 63.0967 57.5029 112.441t157.932 49.3447q89.0898 0 147.403 -49.3447q58.3125 -49.3447 58.3125 -112.441v-82.5107q0 -63.0967 -58.3125 -112.441q-58.3135 -49.3447 -147.403 -49.3447q-98.8086 0 -157.122 49.3447 q-58.3125 49.3447 -58.3125 112.441z" />
<glyph unicode="&#x2026;" horiz-adv-x="1247" d="M529 82v51q0 39 35.5 69.5t97.5 30.5q55 0 91 -30.5t36 -69.5v-51q0 -39 -36 -69.5t-91 -30.5q-61 0 -97 30.5t-36 69.5zM113 80v51q0 39 35.5 69.5t97.5 30.5q55 0 91 -30.5t36 -69.5v-51q0 -39 -36 -69.5t-91 -30.5q-61 0 -97 30.5t-36 69.5zM895 82v51q0 39 35.5 69.5 t97.5 30.5q55 0 91 -30.5t36 -69.5v-51q0 -39 -36 -69.5t-91 -30.5q-61 0 -97 30.5t-36 69.5z" />
<glyph unicode="&#x202f;" horiz-adv-x="370" />
<glyph unicode="&#x2039;" horiz-adv-x="698" d="M108.5 501.5q-2.5 24.5 12.5 57.5l262 350q33 37 76 36t76.5 -25.5t47 -63.5t-11.5 -78l-192 -270l205 -301q14 -37 -1.5 -73t-46 -58.5t-69.5 -25.5t-74 26l-264 370q-18 31 -20.5 55.5z" />
<glyph unicode="&#x203a;" horiz-adv-x="698" d="M115.5 139q-13.5 39 11.5 78l192 270l-202 301q-16 37 -1 73t46 58.5t69.5 25.5t73.5 -25l264 -371q18 -31 20.5 -55.5t-11.5 -57.5l-263 -350q-35 -37 -76.5 -36t-75.5 25.5t-47.5 63.5z" />
<glyph unicode="&#x2044;" horiz-adv-x="1036" d="M811 1286q20 29 65.5 36t94.5 -24q41 -29 50 -68.5t-11 -70.5l-785 -1139q-23 -31 -65.5 -39t-87.5 21q-47 29 -56.5 71t13.5 74z" />
<glyph unicode="&#x205f;" horiz-adv-x="462" />
<glyph unicode="&#x20ac;" horiz-adv-x="1064" d="M-55 497.5q0 30.5 16 57.5t49 33h119v114h-119q-33 6 -49 33t-16 57.5t16 57.5t49 33h125q12 94 52 176t105.5 142.5t155 95t203.5 34.5q80 0 147.5 -18.5t118 -49t78 -69.5t27.5 -82q0 -41 -23.5 -63.5t-58.5 -22.5t-61.5 9t-61.5 32q-31 20 -69.5 34.5t-98.5 14.5 q-104 0 -179 -56t-95 -177h350q43 -2 63.5 -30t20.5 -60.5t-20.5 -60t-63.5 -30.5h-356v-114h356q43 -2 63.5 -30t20.5 -60.5t-20.5 -60t-63.5 -29.5h-346q23 -111 97.5 -162t172.5 -51q59 0 95 9t69 27q23 14 38 28.5t30.5 25t32 12.5t40.5 -6q37 -14 52.5 -37t15.5 -57 q0 -43 -27.5 -82t-78 -69t-118 -48t-147.5 -18q-111 0 -198.5 32.5t-153.5 90t-106.5 136t-55.5 169.5h-127q-33 6 -49 32.5t-16 57z" />
<glyph unicode="&#x2122;" horiz-adv-x="1142" d="M86 1260q0 51 53 51h312q55 0 55 -51q0 -23 -14.5 -36.5t-40.5 -13.5h-103v-356q0 -16 -14.5 -30.5t-38.5 -14.5q-25 0 -39 14.5t-14 30.5v356h-103q-25 0 -39 13.5t-14 36.5zM567 854v422q0 16 15.5 29.5t40.5 13.5h16q47 0 63 -33l111 -276l107 276q20 35 65 35l14 -2 q27 0 42.5 -13.5t15.5 -29.5v-422q0 -16 -15.5 -29.5t-42.5 -13.5q-25 0 -39 13.5t-14 29.5v285l-74 -215q-8 -14 -22 -26.5t-37 -12.5q-25 0 -39 12t-24 27l-72 215v-285q0 -16 -15.5 -29.5t-39.5 -13.5q-25 0 -40.5 13.5t-15.5 29.5z" />
<glyph unicode="&#xe000;" horiz-adv-x="1045" d="M0 1045h1045v-1045h-1045v1045z" />
<glyph unicode="&#xfb01;" horiz-adv-x="1318" d="M47 932q0 41 26.5 66.5t61.5 25.5h72v61q0 193 93 271t273 78q45 0 86 -8.5t73 -26t50.5 -42t18.5 -54.5q0 -45 -23.5 -72t-70.5 -27q-35 0 -63 8.5t-71 8.5q-72 0 -100.5 -29t-28.5 -98v-70h158q35 0 61.5 -25.5t26.5 -66.5q0 -45 -26.5 -70.5t-61.5 -25.5h-158v-760 q0 -37 -31.5 -66.5t-82.5 -29.5q-57 0 -90 29.5t-33 66.5v760h-72q-35 0 -61.5 25.5t-26.5 70.5zM928 76v872q0 37 33.5 66.5t89.5 29.5q53 0 84.5 -29.5t31.5 -66.5v-872q0 -37 -31.5 -66.5t-84.5 -29.5q-55 0 -89 29.5t-34 66.5zM928 1268v49q0 37 33.5 66.5t89.5 29.5 q53 0 84.5 -29.5t31.5 -66.5v-49q0 -37 -31.5 -67t-84.5 -30q-55 0 -89 30t-34 67z" />
<glyph unicode="&#xfb02;" horiz-adv-x="1318" d="M47 932q0 41 26.5 66.5t61.5 25.5h72v61q0 193 93 271t273 78q45 0 86 -8.5t73 -26t50.5 -42t18.5 -54.5q0 -45 -23.5 -72t-70.5 -27q-35 0 -63 8.5t-71 8.5q-72 0 -100.5 -29t-28.5 -98v-70h158q35 0 61.5 -25.5t26.5 -66.5q0 -45 -26.5 -70.5t-61.5 -25.5h-158v-760 q0 -37 -31.5 -66.5t-82.5 -29.5q-57 0 -90 29.5t-33 66.5v760h-72q-35 0 -61.5 25.5t-26.5 70.5zM928 76v1220q0 37 33.5 67t89.5 30q53 0 84.5 -30t31.5 -67v-1220q0 -37 -31.5 -66.5t-84.5 -29.5q-55 0 -89 29.5t-34 66.5z" />
<glyph unicode="&#xfb03;" horiz-adv-x="2066" d="M1663 76v872q0 37 33.5 66.5t89.5 29.5q53 0 84.5 -29.5t31.5 -66.5v-872q0 -37 -31.5 -66.5t-84.5 -29.5q-55 0 -89 29.5t-34 66.5zM1663 1268v49q0 37 33.5 66.5t89.5 29.5q53 0 84.5 -29.5t31.5 -66.5v-49q0 -37 -31.5 -67t-84.5 -30q-55 0 -89 30t-34 67zM797 932 q0 41 26.5 66.5t61.5 25.5h72v61q0 193 93 271t273 78q45 0 86 -8.5t73 -26t50.5 -42t18.5 -54.5q0 -45 -23.5 -72t-70.5 -27q-35 0 -63 8.5t-71 8.5q-72 0 -100.5 -29t-28.5 -98v-70h158q35 0 61.5 -25.5t26.5 -66.5q0 -45 -26.5 -70.5t-61.5 -25.5h-158v-760 q0 -37 -31.5 -66.5t-82.5 -29.5q-57 0 -90 29.5t-33 66.5v760h-72q-35 0 -61.5 25.5t-26.5 70.5zM47 932q0 41 26.5 66.5t61.5 25.5h72v61q0 193 93 271t273 78q45 0 86 -8.5t73 -26t50.5 -42t18.5 -54.5q0 -45 -23.5 -72t-70.5 -27q-35 0 -63 8.5t-71 8.5q-72 0 -100.5 -29 t-28.5 -98v-70h158q35 0 61.5 -25.5t26.5 -66.5q0 -45 -26.5 -70.5t-61.5 -25.5h-158v-760q0 -37 -31.5 -66.5t-82.5 -29.5q-57 0 -90 29.5t-33 66.5v760h-72q-35 0 -61.5 25.5t-26.5 70.5z" />
<glyph unicode="&#xfb04;" horiz-adv-x="2066" d="M1663 76v1220q0 37 33.5 67t89.5 30q53 0 84.5 -30t31.5 -67v-1220q0 -37 -31.5 -66.5t-84.5 -29.5q-55 0 -89 29.5t-34 66.5zM797 932q0 41 26.5 66.5t61.5 25.5h72v61q0 193 93 271t273 78q45 0 86 -8.5t73 -26t50.5 -42t18.5 -54.5q0 -45 -23.5 -72t-70.5 -27 q-35 0 -63 8.5t-71 8.5q-72 0 -100.5 -29t-28.5 -98v-70h158q35 0 61.5 -25.5t26.5 -66.5q0 -45 -26.5 -70.5t-61.5 -25.5h-158v-760q0 -37 -31.5 -66.5t-82.5 -29.5q-57 0 -90 29.5t-33 66.5v760h-72q-35 0 -61.5 25.5t-26.5 70.5zM47 932q0 41 26.5 66.5t61.5 25.5h72v61 q0 193 93 271t273 78q45 0 86 -8.5t73 -26t50.5 -42t18.5 -54.5q0 -45 -23.5 -72t-70.5 -27q-35 0 -63 8.5t-71 8.5q-72 0 -100.5 -29t-28.5 -98v-70h158q35 0 61.5 -25.5t26.5 -66.5q0 -45 -26.5 -70.5t-61.5 -25.5h-158v-760q0 -37 -31.5 -66.5t-82.5 -29.5 q-57 0 -90 29.5t-33 66.5v760h-72q-35 0 -61.5 25.5t-26.5 70.5z" />
</font>
</defs>
</svg>
